<?xml version="1.0" standalone="no"?>
<!DOCTYPE svg PUBLIC "-//W3C//DTD SVG 1.1//EN" "http://www.w3.org/Graphics/SVG/1.1/DTD/svg11.dtd">
<svg xmlns="http://www.w3.org/2000/svg">
<metadata>BuddyBoss</metadata>
<defs>
<font id="lined" horiz-adv-x="1000" >
<font-face font-family="lined" font-weight="400" font-stretch="normal" units-per-em="1000" ascent="850" descent="-150" />
<missing-glyph horiz-adv-x="1000" />
<glyph glyph-name="brand-meetup" unicode="&#xe800;" d="M557 725c-23 0-42-18-42-41 0-23 19-41 42-41 23 0 42 18 42 41 0 23-19 41-42 41z m-281-254l43 2 14 40c14 39 52 68 99 68 25 0 47-9 65-23l26-20 32 10c10 4 20 5 30 5 51 0 91-40 91-87l0 0 0-3c0-1 0-2 0-3l-3-42 39-18c12-6 20-18 20-30 0-8-3-15-10-22l-35-37 29-42c10-14 16-31 16-49 0-45-36-84-85-87l-45-3-12-44c-5-20-23-35-47-35-13 0-26 5-35 14l-40 38-43-34c-14-12-31-18-49-18-43 0-75 32-77 70l7 56-57 12c-36 7-61 37-61 72 0 20 8 38 22 52l32 32-20 41c-4 8-6 17-6 25 0 31 25 59 60 60z m-39-344l-1-2c0-76 63-137 140-137 34 0 64 12 89 32 20-20 48-32 78-32 52 0 96 35 108 82 80 6 143 71 143 150 0 31-10 61-27 85 17 17 27 40 27 65 0 38-23 71-56 87 0 1 0 2 0 3 0 2 0 4 0 6 0 83-68 150-153 150-17 0-34-3-50-8-28 22-64 35-103 35-73 0-135-46-158-109-67-3-121-56-121-123 0-19 5-37 13-53-25-25-41-59-41-97 0-66 48-121 112-134z m0 489c-16 0-28-12-28-27 0-15 12-28 28-28 15 0 28 13 28 28 0 15-13 27-28 27z m585-300c0-15 13-28 28-28 16 0 28 13 28 28 0 15-12 27-28 27-15 0-28-12-28-27z m-627-219c-8 0-14-6-14-14 0-7 6-13 14-13 8 0 14 6 14 13 0 8-6 14-14 14z m460-96c0-22 19-41 42-41 23 0 42 19 42 41 0 23-19 41-42 41-23 0-42-18-42-41z m-223-40c0-15 12-28 28-28 15 0 28 13 28 28 0 15-13 27-28 27-16 0-28-12-28-27z m69 458c-3 0-7 1-9 0-9 0-14-5-22-11 0 0-1-1-2-2-4-4-13-12-21-8-4 2-18 8-28 13-18 8-46-6-56-23-12-22-35-97-44-129-2-6-3-10-4-13-10-30 13-55 43-53 12 1 21 5 29 20 2 4 15 36 27 67 12 29 23 57 25 60 2 4 10 9 16 6 7-4 8-11 7-17 0-6-10-30-19-52-7-17-14-33-14-36-4-26 31-30 45-5 1 3 6 13 13 27 16 32 41 80 44 85 5 7 8 9 13 9 4 0 10-1 8-13 0-5-10-24-20-45-11-22-22-45-24-54-6-23 7-47 28-57 13-7 73-18 68 12-2 12-13 13-24 15-12 1-25 3-26 16-2 18 12 48 24 77 13 27 25 53 22 68-4 27-22 33-38 33-15 1-19-2-24-5-1 0-1 0-1 0 0 0-1 0-1-1-3-2-7-4-13 1 0 1-1 2-2 3-6 6-12 11-20 12z" horiz-adv-x="1000" />

<glyph glyph-name="ball-soccer" unicode="&#xe801;" d="M263 554c32 37 73 67 119 86l93-58 4-97-95-67-96 28-25 108z m8-159l97-28 34-114-54-81-112 10c-26 42-43 90-47 141l82 72z m118-258l57 85h118l59-81-39-92c-27-7-55-11-84-11-25 0-49 2-73 8l-38 91z m278 36l-59 80 36 115 96 29 72-63c-3-56-20-108-49-153l-96-8z m-133 311l-4 96 96 56c47-21 88-53 120-93l-22-95-97-29-93 65z m252-8l1-1c9-21 15-42 20-65l-30 26 9 40z m-589-49c6 22 13 43 23 62 1 1 1 2 2 3l13-57-40-35c1 10 1 19 2 27z m475-308l42 4c-17-17-37-32-58-44l16 40z m-338-34c-8 5-17 11-24 17-7 6-14 13-21 21l49-4 19-45c-9 4-16 8-23 11z m122 573c5 1 10 2 14 3 10 1 20 2 30 2 11 0 22-1 33-2 6-2 12-3 19-5l-48-28-48 30z m44 67c-207 0-375-168-375-375 0-207 168-375 375-375 207 0 375 168 375 375 0 207-168 375-375 375z m-79-347l85 59 85-59-33-102h-106l-31 102z" horiz-adv-x="1000" />

<glyph glyph-name="brand-onesignal" unicode="&#xe802;" d="M490 704c106 0 203-42 272-109 70-68 113-161 113-264 0-70-20-135-54-191-29-46-68-86-114-117-28 19-59 35-92 46 98 47 166 147 166 264 0 161-130 291-291 291-161 0-292-130-292-291 0-117 68-217 167-264-33-11-64-27-93-46-46 31-85 71-113 117-35 56-55 121-55 191 0 103 43 196 113 264 69 67 166 109 273 109z m-317-65c-81-78-131-187-131-308 0-82 23-158 63-224 38-61 90-112 153-149l18-10 17 13c33 25 71 44 113 55v94c-90 34-154 121-154 223 0 131 106 237 238 237 131 0 237-106 237-237 0-102-64-189-154-223v-94c42-11 80-30 114-55l16-13 18 10c63 37 115 88 153 149 40 66 64 142 64 224 0 121-51 230-132 308-81 79-193 128-316 128-124 0-236-49-317-128z m483-306c0 92-74 166-166 166-92 0-167-74-167-166 0-62 33-116 83-145v69c-18 20-29 46-29 76 0 62 50 112 113 112 62 0 112-50 112-112 0-30-11-56-29-76v-69c50 29 83 83 83 145z m-125-162v57c0 0 0 0 0 0v146h-114v-41h31v-312h83v20h0v58c0 0 0 0 0 0v72c0 0 0 0 0 0z" horiz-adv-x="1000" />

<glyph glyph-name="calendar" unicode="&#xe803;" d="M354 735c0 18-14 32-31 32-17 0-31-14-31-32v-10h-51c-88 0-158-75-158-164v-102-383c0-89 70-164 158-164h497c89 0 158 75 158 164v383 102c0 89-69 164-158 164h-50v10c0 18-14 32-32 32-17 0-31-14-31-32v-10h-271v10z m-62-72v-11c0-17 14-31 31-31 17 0 31 14 31 31v11h271v-11c0-17 14-31 31-31 18 0 32 14 32 31v11h50c51 0 95-44 95-102v-71h-687v71c0 58 44 102 95 102h51z m-146-235h687v-352c0-57-44-101-95-101h-497c-51 0-95 44-95 101v352z" horiz-adv-x="1000" />

<glyph glyph-name="thumbtack" unicode="&#xe804;" d="M690 725h-391c-17 0-31-14-31-31 0-17 14-31 31-31h45l-14-259c-60-30-100-78-119-143-14-47 26-85 68-85h184v-149c0-17 14-31 31-31 18 0 32 14 32 31v149h181c41 0 82 38 68 85-19 65-59 113-119 143l-14 259h48c17 0 31 14 31 31 0 17-14 31-31 31z m-283-62h172l17-301 18-8c53-21 85-57 101-110 0-1 0-1 0-2 0 0 0 0-1-1-1-2-4-3-7-3h-428c-3 0-6 1-7 3-1 1-1 1-1 1 0 1 0 1 0 2 16 53 48 89 101 110l18 8 17 301z" horiz-adv-x="1000" />

<glyph glyph-name="award-slash" unicode="&#xe805;" d="M521 703c4 0 8-1 11-4 48-41 103-61 161-60 9 0 15-2 18-5 3-2 5-6 5-10 10-62 40-113 85-149 7-5 9-11 10-15 1-3 0-7-2-10-32-54-43-113-31-170 1-7 0-13-2-17-1-1-2-2-4-3 0 0-1 0-1-1l48-44c5 6 10 11 13 18 10 18 12 39 8 59-7 41 0 83 24 124 11 18 14 38 10 57-4 20-16 38-32 51-32 26-54 63-62 110-4 20-14 37-30 49-16 13-37 19-57 19-41-1-82 13-118 45-17 13-36 20-56 20-21-1-40-9-56-23-31-27-71-42-120-41-16 0-31-5-44-13l55-50c59 1 110 20 151 55 6 6 12 8 16 8z m-1-186c60 0 108-48 108-107 0-6-1-12-2-19l52-47c9 20 14 43 14 66 0 95-77 170-172 170-28 0-55-7-79-20l52-47c9 2 18 4 27 4z m248-421l40-37c13-12 33-11 44 2 12 13 11 33-2 44l-621 567c-12 11-32 11-44-2-11-13-10-33 2-44l56-51c-11-20-27-38-47-54-16-13-26-31-28-50-3-21 2-41 12-58 21-36 30-78 20-125-3-20 0-40 11-57 11-18 28-30 48-37 22-7 43-20 61-36l-64-150c-11-27 9-58 39-58l51 1 35-37c21-22 57-16 69 12l69 162c8 0 16 0 24-1l69-161c11-28 48-34 68-12l35 37 51-1c30 0 51 30 39 58l-37 88z m-248 208c-59 0-107 48-107 106 0 3 0 6 0 9l125-113c-6-1-12-2-18-2z m72-48l72-66c-12-13-22-27-31-42-4-7-8-11-12-13-4-1-8-1-11 0-60 23-119 23-172 3-8-3-15-3-19-2-4 1-6 4-9 7-30 55-76 93-130 112-8 3-13 6-15 10-2 3-2 7-2 10 12 62 2 121-28 170-5 7-5 13-5 17 1 3 3 7 6 9 22 18 40 39 54 61l70-64c-7-18-10-37-10-58 0-94 76-170 171-170 25 0 50 6 71 16z m-187-273l-31 33-46-1 36 84c9-11 21-19 35-23 14-5 29-5 44-3l-38-90z m283 33l-30-33-38 88c8 0 17 2 24 5 19 8 35 22 45 41l1 1 43-103-45 1z" horiz-adv-x="1000" />

<glyph glyph-name="car-small" unicode="&#xe806;" d="M669 387c10-23 33-39 58-39h127v-102h-62c-18 13-39 21-63 21-23 0-45-8-62-21h-334c-17 13-39 21-62 21-24 0-45-8-63-21h-62v102h89c25 0 48 16 58 39l60 151h256l60-151z m-42-204c-1-6-2-13-2-20 0-58 47-105 104-105 58 0 104 47 104 105 0 7 0 14-2 20h65c11 0 21 10 21 21v165c0 23-19 42-42 42h-148l-65 163c-6 16-22 26-39 26h-284c-17 0-32-10-39-26l-65-163h-110c-23 0-42-19-42-42v-165c0-11 10-21 21-21h65c-2-6-2-13-2-20 0-58 46-105 104-105 57 0 104 47 104 105 0 7-1 14-2 20h254z m-134 303c0 18-14 32-31 32-17 0-31-14-31-32v-75c0-18 14-32 31-32h114c17 0 31 14 31 32 0 17-14 31-31 31h-83v44z m-222-282c23 0 42-18 42-41 0-23-19-42-42-42-23 0-42 19-42 42 0 23 19 41 42 41z m417-41c0 23 18 41 41 41 23 0 42-18 42-41 0-23-19-42-42-42-23 0-41 19-41 42z" horiz-adv-x="1000" />

<glyph glyph-name="brand-facebook-f" unicode="&#xe807;" d="M584 630c20 22 49 34 87 34h47v95c-22 3-62 8-101 8-57 0-104-17-136-49-33-33-50-83-50-143v-143h-139v-115h139v-384h129v384h131l17 115h-148v125c0 29 8 54 24 73z" horiz-adv-x="1000" />

<glyph glyph-name="angle-down" unicode="&#xe826;" d="M259 466c-12-12-12-32 0-44l209-209c12-12 32-12 44 0l208 209c12 12 12 32 0 44-12 12-32 12-44 0l-186-186-187 186c-12 12-32 12-44 0z" horiz-adv-x="1000" />

<glyph glyph-name="angle-right" unicode="&#xe827;" d="M384 130c12-12 32-12 44 0l209 208c12 13 12 32 0 45l-209 208c-12 12-32 12-44 0-12-12-12-32 0-44l186-187-186-186c-12-12-12-32 0-44z" horiz-adv-x="1000" />

<glyph glyph-name="times" unicode="&#xe828;" d="M290 516l161-161-161-160c-12-12-12-32 0-44 12-12 32-12 44 0l161 160 160-160c12-12 32-12 44 0 12 12 12 32 0 44l-160 160 160 161c12 12 12 32 0 44-12 12-32 12-44 0l-160-160-161 160c-12 12-32 12-44 0-12-12-12-32 0-44z" horiz-adv-x="1000" />

<glyph glyph-name="activity" unicode="&#xe854;" d="M275 664h450c52 0 94-46 94-103v-422c0-57-42-103-94-103h-450c-52 0-94 46-94 103v422c0 57 42 103 94 103z m-150-103v-422c0-91 67-164 150-164h450c83 0 150 73 150 164v422c0 91-67 164-150 164h-450c-83 0-150-73-150-164z m469-36c-4 12-15 19-28 19-12-1-23-10-26-22l-55-243-42 131c-3 10-13 18-24 19-11 1-22-5-28-15l-42-80h-68c-15 0-28-12-28-28 0-15 13-28 28-28h71c19 0 36 10 45 27l13 24 52-166c4-12 16-20 28-19 13 0 24 9 27 22l56 247 35-101c7-20 26-34 47-34h64c15 0 28 13 28 28 0 16-13 28-28 28h-59l-66 191z" horiz-adv-x="1000" />

<glyph glyph-name="question-triangle" unicode="&#xe855;" d="M533 738c12-7 22-16 28-27l368-658c18-31 7-72-27-89-10-6-22-9-33-9h-737c-40 0-69 31-69 67 0 11 2 22 8 31l368 658c18 32 60 45 94 27z m-148 4l-369-658c-10-19-16-40-16-62 0-72 59-129 132-129h737c21 0 43 5 62 15 64 34 88 113 53 176l-369 658c-12 21-30 39-52 51-64 34-143 11-178-51z m109-652c21 0 39 17 39 39 0 21-18 39-39 39-22 0-39-18-39-39 0-22 17-39 39-39z m-20 334c5 6 13 9 26 9 6 0 11-1 16-2 4-2 8-4 11-7 3-2 5-5 7-9 1-3 2-8 3-16 0-10-4-24-19-42-4-3-9-8-13-12l-3-4c-4-4-7-7-8-9-7-6-13-14-19-23-6-9-10-19-13-30-4-11-5-24-5-36v-8c0-18 14-32 31-32 17 0 31 14 31 32v8c0 8 1 14 3 19 1 5 3 10 6 14 3 5 6 9 10 12 2 3 6 7 10 10l3 3c4 6 9 10 10 12l2 1 1 1c22 25 36 55 35 86 0 12-2 26-8 39-5 12-13 23-23 31-9 8-20 15-31 19-12 4-25 6-37 6-27 0-51-8-70-27-18-17-28-39-32-63-2-17 9-33 26-36 17-3 33 9 36 26 2 13 7 21 14 28z" horiz-adv-x="1000" />

<glyph glyph-name="align-center" unicode="&#xe856;" d="M292 527c0-17 14-31 31-31h333c18 0 32 14 32 31 0 17-14 31-32 31h-333c-17 0-31-14-31-31z m-125-167c0-17 14-31 31-31h583c18 0 32 14 32 31 0 18-14 32-32 32h-583c-17 0-31-14-31-32z m156-135c-17 0-31-14-31-31 0-17 14-31 31-31h333c18 0 32 14 32 31 0 17-14 31-32 31h-333z" horiz-adv-x="1000" />

<glyph glyph-name="airplay" unicode="&#xe857;" d="M281 683c-86 0-156-70-156-156v-268c0-61 49-110 110-110 17 0 31 14 31 31 0 17-14 31-31 31-26 0-47 21-47 48v268c0 52 42 94 93 94h459c51 0 93-42 93-94v-268c0-27-21-48-47-48-17 0-31-14-31-31 0-17 14-31 31-31 61 0 110 49 110 110v268c0 86-70 156-156 156h-459z m229-461l101-117h-201l100 117z m32 59c-17 19-47 19-63 0l-146-170c-23-27-4-69 32-69h291c36 0 55 42 32 69l-146 170z" horiz-adv-x="1000" />

<glyph glyph-name="align-justify" unicode="&#xe858;" d="M167 527c0-17 14-31 31-31h583c18 0 32 14 32 31 0 17-14 31-32 31h-583c-17 0-31-14-31-31z m0-167c0-17 14-31 31-31h583c18 0 32 14 32 31 0 18-14 32-32 32h-583c-17 0-31-14-31-32z m31-135c-17 0-31-14-31-31 0-17 14-31 31-31h583c18 0 32 14 32 31 0 17-14 31-32 31h-583z" horiz-adv-x="1000" />

<glyph glyph-name="align-left" unicode="&#xe859;" d="M167 527c0-17 14-31 31-31h583c18 0 32 14 32 31 0 17-14 31-32 31h-583c-17 0-31-14-31-31z m0-167c0-17 14-31 31-31h333c18 0 32 14 32 31 0 18-14 32-32 32h-333c-17 0-31-14-31-32z m31-135c-17 0-31-14-31-31 0-17 14-31 31-31h583c18 0 32 14 32 31 0 17-14 31-32 31h-583z" horiz-adv-x="1000" />

<glyph glyph-name="align-right" unicode="&#xe85a;" d="M833 173c0 17-14 31-31 31l-583 0c-17 0-31-14-31-31 0-17 14-31 31-31l583 0c17 0 31 14 31 31z m0 167c0 17-14 31-31 31h-333c-17 0-31-14-31-31 0-18 14-32 31-32h333c17 0 31 14 31 32z m-31 135c17 0 31 14 31 31 0 18-14 32-31 32l-583 0c-17 0-31-14-31-32 0-17 14-31 31-31l583 0z" horiz-adv-x="1000" />

<glyph glyph-name="anchor" unicode="&#xe85d;" d="M490 704c45 0 81-36 81-81 0-45-36-81-81-81-45 0-82 36-82 81 0 45 37 81 82 81z m-144-81c0-69 48-126 112-140v-465c-165 15-296 146-311 311h80c17 0 31 14 31 31 0 18-14 32-31 32h-112c-18 0-32-14-32-32 0-224 182-406 407-406 0 0 0 0 0 0 0 0 0 0 0 0 224 0 406 182 406 406 0 18-14 32-31 32h-113c-17 0-31-14-31-32 0-17 14-31 31-31h80c-15-165-146-296-311-311v465c64 14 112 71 112 140 0 79-64 144-143 144-80 0-144-65-144-144z" horiz-adv-x="1000" />

<glyph glyph-name="brand-aperture" unicode="&#xe85e;" d="M194 568c-86-122-92-284-16-410 2-7 5-12 10-16 14-20 29-39 47-57 146-147 384-147 530 0l-44 44c-42-42-94-70-148-83l136 241 55-98c1-1 2-2 2-3-12-20-27-39-45-57l44-44c147 146 147 384 0 530-131 132-336 145-482 41-17-12-33-26-48-41-15-15-29-31-41-47z m390-59l89-158-87-154h-174c-1 0-1 1-1 2l-84 150 90 160h167z m72 0h113c46-77 55-169 29-253l-142 253z m64 63h-268l51 91c79-1 157-32 217-91z m-429-160l-55 99c-1 1-1 2-2 3 12 20 27 39 45 57 42 42 94 70 148 83l-136-242z m-89 32l138-247h-112c-43 75-52 165-26 247z m295-406c-79 0-158 31-218 91l-38-38 38 38c-2 2-3 3-5 5h277l-54-96z" horiz-adv-x="1000" />

<glyph glyph-name="arrow-left" unicode="&#xe85f;" d="M167 360c0-17 14-31 31-31h583c18 0 32 14 32 31 0 18-14 32-32 32h-583c-17 0-31-14-31-32z m261 231c-12 12-32 12-44 0l-208-208c-12-13-12-32 0-45 12-12 32-12 44 0l208 209c13 12 13 32 0 44z m-252-208c-12-13-12-32 0-45l208-208c12-12 32-12 44 0 13 12 13 32 0 44l-208 209c-12 12-32 12-44 0z" horiz-adv-x="1000" />

<glyph glyph-name="arrow-right" unicode="&#xe860;" d="M813 360c0 18-14 32-32 32h-583c-17 0-31-14-31-32 0-17 14-31 31-31h583c18 0 32 14 32 31z m-262-230c12-12 32-12 44 0l208 208c13 13 13 32 0 45-12 12-32 12-44 0l-208-209c-12-12-12-32 0-44z m252 208c13 13 13 32 0 45l-208 208c-12 12-32 12-44 0-12-12-12-32 0-44l208-209c12-12 32-12 44 0z" horiz-adv-x="1000" />

<glyph glyph-name="arrow-down" unicode="&#xe861;" d="M490 38c17 0 31 14 31 31v583c0 17-14 31-31 31-18 0-32-14-32-31v-583c0-17 14-31 32-31z m-231 261c-12-12-12-32 0-44l209-208c12-12 32-12 44 0 12 12 12 32 0 44l-209 208c-12 12-32 12-44 0z m209-252c12-12 32-12 44 0l208 208c12 12 12 32 0 44-12 12-32 12-44 0l-208-208c-13-12-13-32 0-44z" horiz-adv-x="1000" />

<glyph glyph-name="arrow-up" unicode="&#xe864;" d="M490 683c-18 0-32-14-32-31v-583c0-17 14-31 32-31 17 0 31 14 31 31v583c0 17-14 31-31 31z m230-261c12 12 12 32 0 44l-208 208c-12 12-32 12-44 0-13-12-13-32 0-44l208-208c12-12 32-12 44 0z m-208 252c-12 12-32 12-44 0l-209-208c-12-12-12-32 0-44 12-12 32-12 44 0l209 208c12 12 12 32 0 44z" horiz-adv-x="1000" />

<glyph glyph-name="award" unicode="&#xe865;" d="M521 581c-95 0-171-76-171-170 0-95 76-170 171-170 94 0 171 75 171 170 0 94-77 170-171 170z m-108-170c0 58 48 106 108 106 59 0 107-48 107-106 0-59-48-107-107-107-60 0-108 48-108 107z m106 356c20 0 40-6 55-20 37-31 77-45 118-44 21 0 41-6 58-19 16-12 26-29 29-49 8-48 30-85 62-111 16-13 28-30 32-50 4-20 1-40-9-57-25-41-32-84-24-124 4-21 1-41-8-59-10-18-25-31-44-37-19-7-36-16-51-26l69-162c12-28-9-58-39-58l-51 1-35-38c-21-22-57-15-69 12l-68 161c-8 1-17 2-25 2l-69-163c-12-27-48-34-68-12l-36 38-51-1c-30 0-50 30-39 58l64 149c-18 17-39 29-61 37-20 6-37 19-48 36-10 17-14 37-10 57 9 47 1 89-21 125-11 18-15 38-12 58 2 20 12 37 28 50 38 30 59 68 65 109 4 20 13 39 28 53 15 13 34 20 54 20 49-1 89 14 120 41 16 13 36 22 56 23z m13-68c-3 3-7 4-11 4-4 0-10-2-16-8-44-37-99-57-163-56-4 0-7-1-10-4-3-3-6-8-8-15-9-57-39-109-88-149-3-2-5-5-5-9-1-4 0-10 4-16 30-50 40-108 28-170-1-4 0-8 2-11 2-3 7-7 15-10 54-19 100-57 130-112 2-3 5-6 9-7 4-1 10-1 19 2 53 20 112 20 171-2 4-2 8-2 12 0 4 1 9 5 13 12 28 50 73 88 133 109 4 1 7 4 9 7 2 3 3 9 1 16-11 57 0 116 32 170 2 3 3 7 2 11-1 4-4 9-10 14-45 36-75 87-85 149 0 4-2 8-5 10-3 2-9 5-18 5-57-1-113 19-161 60z m157-582c-10-18-25-33-45-41-7-3-16-5-24-5l38-88 31 33 45-1-44 103-1-1z m-290-41c-13 4-25 12-35 23l-35-84 45 1 31-33 38 90c-14-3-29-2-44 3z" horiz-adv-x="1000" />

<glyph glyph-name="at" unicode="&#xe867;" d="M490 704c189 0 343-154 343-344v-62c0-47-38-86-86-86-47 0-85 39-85 86v62c0 95-77 172-172 172-95 0-172-77-172-172 0-94 77-171 172-171 47 0 90 19 121 50 23-53 76-89 136-89 82 0 149 66 149 148v62c0 225-182 407-406 407-225 0-407-182-407-407 0-224 182-406 407-406 51 0 104 10 155 31 16 7 24 25 17 41-7 16-25 23-41 17-43-18-87-26-131-26-190 0-344 154-344 343 0 190 154 344 344 344z m109-344c0-60-49-109-109-109-61 0-110 49-110 109 0 61 49 110 110 110 60 0 109-49 109-110z" horiz-adv-x="1000" />

<glyph glyph-name="chart-bar-v" unicode="&#xe868;" d="M83-54c0-17 14-31 32-31h789c17 0 31 14 31 31 0 17-14 31-31 31h-789c-18 0-32-14-32-31z m529-31h204c18 0 32 14 32 31v482c0 42-34 76-75 76h-161c-18 0-32-14-32-32v-526c0-17 14-31 32-31z m31 62v464h130c6 0 12-6 12-13v-451h-142z m-236-62h205c17 0 31 14 31 31v746c0 41-34 75-75 75h-117c-42 0-75-34-75-75v-746c0-17 14-31 31-31z m31 62v715c0 7 6 12 13 12h117c7 0 12-5 12-12v-715h-142z m-236-62h205c17 0 31 14 31 31v658c0 17-14 31-31 31h-161c-41 0-75-34-75-75v-614c0-17 14-31 31-31z m32 62v583c0 7 5 13 12 13h130v-596h-142z m-151-31c0-17 14-31 32-31h789c17 0 31 14 31 31 0 17-14 31-31 31h-789c-18 0-32-14-32-31z m529-31h204c18 0 32 14 32 31v482c0 42-34 76-75 76h-161c-18 0-32-14-32-32v-526c0-17 14-31 32-31z m31 62v464h130c6 0 12-6 12-13v-451h-142z m-236-62h205c17 0 31 14 31 31v746c0 41-34 75-75 75h-117c-42 0-75-34-75-75v-746c0-17 14-31 31-31z m31 62v715c0 7 6 12 13 12h117c7 0 12-5 12-12v-715h-142z m-236-62h205c17 0 31 14 31 31v658c0 17-14 31-31 31h-161c-41 0-75-34-75-75v-614c0-17 14-31 31-31z m32 62v583c0 7 5 13 12 13h130v-596h-142z" horiz-adv-x="1000" />

<glyph glyph-name="battery" unicode="&#xe869;" d="M561 339c8 9 9 22 4 33-6 10-17 17-28 17h-124l115 149h160c28 0 52-24 52-53v-57 0-140-58c0-29-24-52-52-52h-163c-17 0-31-14-31-31 0-17 14-31 31-31h163c63 0 114 51 114 114v26h42c29 0 52 24 52 52v99c0 29-23 52-52 52l-42 0v26c0 64-51 115-114 115h-163c-2 0-4 0-6-1-11 3-23-1-31-11l-164-211c-7-9-8-22-3-33 5-11 16-17 28-17h124l-116-149h-159c-29 0-52 23-52 52v255c0 29 23 53 52 53h163c17 0 31 14 31 31 0 17-14 31-31 31h-163c-63 0-115-51-115-115v-255c0-63 52-114 115-114h163c2 0 4 0 6 0 11-2 23 2 30 12l164 211z m241-20v78l31 0v-78h-31z" horiz-adv-x="1000" />

<glyph glyph-name="bell-slash" unicode="&#xe86a;" d="M387 74c-16-7-22-26-15-42 1 0 1-1 1-2 3-6 9-17 14-25 26-37 68-61 117-61 60 0 111 37 132 89 7 16-1 35-17 41-16 6-34-1-41-17-11-30-40-51-74-51-27 0-51 14-66 35-2 3-5 8-8 16 0 1-1 1-1 3-8 15-27 22-42 14z m-140 600c-12-12-13-31-1-44l78-83 456-468c12-12 32-12 44 0 12 12 13 32 1 44l-456 467-78 83c-11 13-31 13-44 1z m499-405c17-5 30-21 30-40 0-23-19-42-42-42h-463c-23 0-42 19-42 42 0 19 14 36 32 40 27 7 47 32 47 61l0 136c0 109 88 197 196 197 108 0 196-88 196-197l0-137c0-28 19-52 46-60z m-501 61c-45-12-78-53-78-101 0-58 46-105 104-105h463c58 0 104 47 104 105 0 47-32 88-75 100l0 137c0 143-116 259-259 259-143 0-259-116-259-259l0-136z" horiz-adv-x="1000" />

<glyph glyph-name="battery-empty" unicode="&#xe86b;" d="M208 538h500c35 0 63-28 63-63v-250c0-34-28-62-63-62h-500c-34 0-62 28-62 62v250c0 35 28 63 62 63z m-125-63v-250c0-69 56-125 125-125h500c69 0 125 56 125 125v250c0 69-56 125-125 125h-500c-69 0-125-56-125-125z m865-42c0 18-14 32-31 32-18 0-32-14-32-32v-166c0-18 14-32 32-32 17 0 31 14 31 32v166z" horiz-adv-x="1000" />

<glyph glyph-name="bluetooth" unicode="&#xe86c;" d="M501 681c-12-5-19-16-19-29v-217l-95 94c-13 12-33 12-45-1-12-12-12-32 1-44l126-124-126-123c-13-12-13-32-1-44 12-13 32-13 45-1l95 94v-217c0-13 7-24 19-29 12-5 25-2 34 7l149 145c6 6 9 14 9 23 0 8-3 16-9 22l-126 123 126 124c6 6 9 14 9 22 0 9-3 17-9 23l-149 145c-9 9-22 12-34 7z m43-395l73-71-73-72v143z m0 149v143l73-72-73-71z" horiz-adv-x="1000" />

<glyph glyph-name="bell" unicode="&#xe86d;" d="M746 269c17-5 30-21 30-40 0-23-19-42-42-42h-463c-23 0-42 19-42 42 0 19 14 36 32 40 27 7 47 32 47 61l0 136c0 109 88 197 196 197 108 0 196-88 196-197l0-137c0-28 19-52 46-60z m-501 61c-45-12-78-53-78-101 0-58 46-105 104-105h463c58 0 104 47 104 105 0 47-32 88-75 100l0 137c0 143-116 259-259 259-143 0-259-116-259-259l0-136z m142-256c-16-7-22-26-15-42 1 0 1-1 1-2 3-6 9-17 14-25 26-37 68-61 117-61 60 0 111 37 132 89 7 16-1 35-17 41-16 6-34-1-41-17-11-30-40-51-74-51-27 0-51 14-66 35-2 3-5 8-8 16 0 1-1 1-1 3-8 15-27 22-42 14z" horiz-adv-x="1000" />

<glyph glyph-name="book" unicode="&#xe86e;" d="M344 485c0-17 14-31 31-31h271c17 0 31 14 31 31 0 18-14 32-31 32h-271c-17 0-31-14-31-32z m31-93c-17 0-31-14-31-32 0-17 14-31 31-31h271c17 0 31 14 31 31 0 18-14 32-31 32h-271z m-8 375c-110 0-198-89-198-198v-479c-2-9-2-18-2-28 0-84 56-153 124-153h530c27 0 46 30 41 63-10 64-9 103 2 182 1 5 1 10 0 15 1 1 1 3 1 4v521c0 40-33 73-73 73h-425z m435-73v-479h-511c-21 0-42-7-60-19v373c0 75 61 135 136 135h425c5 0 10-4 10-10z m-511-556h508c-7-59-8-100-2-152h-506c-34 0-62 34-62 76 0 42 28 76 62 76z" horiz-adv-x="1000" />

<glyph glyph-name="briefcase" unicode="&#xe86f;" d="M302 590v-21h-73c-57 0-104-47-104-104v-375c0-58 47-105 104-105h542c57 0 104 47 104 105v375c0 57-47 104-104 104h-73v21c0 74-61 135-135 135h-125c-75 0-136-61-136-135z m333 0v-21h-270v21c0 40 32 73 73 73h125c40 0 72-33 72-73z m136-84c23 0 42-18 42-41v-375c0-23-19-42-42-42h-542c-23 0-41 19-41 42v375c0 23 18 41 41 41h542z m-406-104c0 17-14 31-32 31-17 0-31-14-31-31v-259c0-17 14-31 31-31 18 0 32 14 32 31v259z m333 0c0 17-14 31-31 31-18 0-32-14-32-31v-259c0-17 14-31 32-31 17 0 31 14 31 31v259z" horiz-adv-x="1000" />

<glyph glyph-name="camera-slash" unicode="&#xe870;" d="M338 515c4 4 7 9 10 15l35 73c6 11 16 18 28 18h176c12 0 23-7 28-17l37-75c11-21 33-34 56-34h26c44 0 79-35 79-79v-265c0-30-17-56-42-69l-433 433z m478-479c36 26 59 67 59 115v265c0 78-63 141-141 141h-26l-37 75c-16 31-48 51-84 51h-176c-35 0-68-20-84-53l-34-70-104 104c-12 12-32 12-44 0-13-12-13-32 0-44l71-72c-53-20-91-71-91-132v-265c0-78 63-141 141-141h468c7 0 13 0 19 1l17-16c12-13 32-13 44 0 11 11 12 29 2 41z m-124 36h-426c-43 0-78 35-78 79v265c0 44 35 79 78 79h4l93-94c-45-65-39-156 19-214 58-59 149-65 214-19l96-96z m-141 142c-40-23-91-17-125 17-33 33-39 85-17 125l142-142z m47 124l65-65c10 53-6 110-46 151-41 41-98 57-151 46l64-64c16-5 30-14 43-26 12-12 20-27 25-42z" horiz-adv-x="1000" />

<glyph glyph-name="bookmark" unicode="&#xe872;" d="M496 102c0 0 116-70 195-117 32-20 72 6 72 47v586c0 59-48 107-107 107h-320c-59 0-107-48-107-107v-586c0-41 39-67 72-47 79 47 195 117 195 117z m-32 54l-68-41c-32-19-70-42-104-63v566c0 25 19 45 44 45h320c24 0 44-20 44-45v-566c-34 21-72 44-104 63l-68 41c-20 12-44 12-64 0z" horiz-adv-x="1000" />

<glyph glyph-name="cube" unicode="&#xe873;" d="M507 661l235-136-241-139-241 139 235 136c4 2 9 2 12 0z m-334-130c-4-10-6-20-6-31v-300c0-27 14-51 37-65l260-150c23-13 52-13 75 0l260 150c23 14 37 38 37 65v300c0 27-14 52-37 65l-260 150c-23 13-52 13-75 0l-260-150c-9-6-17-13-23-21-2-2-3-4-5-6-1-2-2-5-3-7z m56-60l241-139v-278l-235 135c-4 3-6 6-6 11v271z m304-139l241 139v-271c0-4-3-8-6-11l-235-135v278z" horiz-adv-x="1000" />

<glyph glyph-name="checkbox" unicode="&#xe875;" d="M302 725c-98 0-177-79-177-177v-375c0-98 79-177 177-177h375c98 0 177 79 177 177v128c0 18-14 32-31 32-17 0-31-14-31-32v-128c0-63-52-115-115-115h-375c-63 0-114 52-114 115v375c0 63 51 115 114 115h188c17 0 31 14 31 31 0 17-14 31-31 31h-188z m503-180c12 12 12 32 0 44-13 12-32 12-45 0l-237-238c-20-20-53-20-74 0l-89 90c-12 12-32 12-44 0-12-13-12-32 0-45l89-89c45-45 117-45 162 0l238 238z" horiz-adv-x="1000" />

<glyph glyph-name="check" unicode="&#xe876;" d="M845 591c-12 12-32 12-44 0l-436-436-187 186c-12 12-32 12-44 0-12-12-12-32 0-44l209-209c12-12 32-12 44 0l458 459c12 12 12 32 0 44z" horiz-adv-x="1000" />

<glyph glyph-name="cast" unicode="&#xe878;" d="M193 517c13 36 48 62 88 62h444c51 0 93-42 93-94l0-308c0-52-42-94-93-94h-96l0-2c0-20-1-40-4-60h100c86 0 156 70 156 156l0 308c0 87-70 157-156 157h-444c-77 0-141-56-154-130 22 3 44 5 66 5z m-37-222c-17 0-31-14-31-31 0-17 14-31 31-31 98 0 177-80 177-177 0-17 14-31 31-31 18 0 32 14 32 31 0 132-108 239-240 239z m-31 108c0-18 14-32 31-32 174 0 316-141 316-315 0-17 14-31 31-31 17 0 31 14 31 31 0 209-169 378-378 378-17 0-31-14-31-31z m65-365c34 0 62 28 62 62 0 35-28 63-62 63-35 0-63-28-63-63 0-34 28-62 63-62z" horiz-adv-x="1000" />

<glyph glyph-name="angle-up" unicode="&#xe87c;" d="M720 213c12 13 12 32 0 45l-208 208c-12 12-32 12-44 0l-209-208c-12-13-12-32 0-45 12-12 32-12 44 0l187 187 186-187c12-12 32-12 44 0z" horiz-adv-x="1000" />

<glyph glyph-name="angle-double-down" unicode="&#xe87d;" d="M678 297c13 12 13 32 0 44-12 12-32 12-44 0l-144-145-145 145c-12 12-32 12-44 0-12-12-12-32 0-44l167-167c12-12 32-12 44 0l166 167z m0 208c13 12 13 32 0 44-12 12-32 12-44 0l-144-144-145 144c-12 12-32 12-44 0-12-12-12-32 0-44l167-167c12-12 32-12 44 0l166 167z" horiz-adv-x="1000" />

<glyph glyph-name="angle-double-right" unicode="&#xe87e;" d="M553 549c-12 12-32 12-44 0-12-12-12-32 0-44l145-145-145-144c-12-12-12-32 0-44 12-12 32-12 44 0l167 166c12 13 12 32 0 45l-167 166z m-208 0c-12 12-32 12-44 0-12-12-12-32 0-44l144-145-144-144c-12-12-12-32 0-44 12-12 32-12 44 0l167 166c12 13 12 32 0 45l-167 166z" horiz-adv-x="1000" />

<glyph glyph-name="angle-double-up" unicode="&#xe87f;" d="M301 383c-12-13-12-32 0-45 12-12 32-12 44 0l145 145 144-145c12-12 32-12 44 0 13 13 13 32 0 45l-166 166c-12 12-32 12-44 0l-167-166z m0-209c-12-12-12-32 0-44 12-12 32-12 44 0l145 145 144-145c12-12 32-12 44 0 13 12 13 32 0 44l-166 167c-12 12-32 12-44 0l-167-167z" horiz-adv-x="1000" />

<glyph glyph-name="angle-double-left" unicode="&#xe880;" d="M468 172c12-12 32-12 44 0 12 12 12 32 0 44l-145 144 145 145c12 12 12 32 0 44-12 12-32 12-44 0l-167-166c-12-13-12-32 0-45l167-166z m208 0c12-12 32-12 44 0 12 12 12 32 0 44l-145 144 145 145c12 12 12 32 0 44-12 12-32 12-44 0l-167-166c-12-13-12-32 0-45l167-166z" horiz-adv-x="1000" />

<glyph glyph-name="circle" unicode="&#xe881;" d="M500 38c-173 0-312 139-312 312 0 173 139 313 312 313 173 0 313-140 313-313 0-173-140-312-313-312z m0-63c207 0 375 168 375 375 0 207-168 375-375 375-207 0-375-168-375-375 0-207 168-375 375-375z" horiz-adv-x="1000" />

<glyph glyph-name="clipboard" unicode="&#xe882;" d="M336 587h-86c-46 0-83-37-83-83v-477c0-46 37-83 83-83h481c46 0 83 37 83 83v477c0 46-37 83-83 83h-86c0-34 28-62 63-62h23c11 0 21-10 21-21v-477c0-11-10-21-21-21h-481c-11 0-21 10-21 21v477c0 11 10 21 21 21h23c35 0 63 28 63 62z m-19-406c0-18 14-32 31-32h284c18 0 32 14 32 32 0 17-14 31-32 31h-284c-17 0-31-14-31-31z m0 154c0-18 14-32 31-32h284c18 0 32 14 32 32 0 17-14 31-32 31h-284c-17 0-31-14-31-31z m146 328h55c17 0 30-9 36-19 15-28 44-45 75-45h4c2 0 3 0 4-1v-30c-1 0-2-1-4-1h-285c-2 0-3 1-4 1v30c1 1 2 1 4 1h3c32 0 61 17 76 45 6 10 19 19 36 19z m-91 11c-4-7-12-12-21-12h-3c-33 0-66-25-66-63v-32c0-38 33-62 66-62h285c33 0 66 24 66 62v32c0 38-33 63-66 63h-4c-8 0-16 5-21 12-18 33-54 51-90 51h-55c-37 0-72-18-91-51z" horiz-adv-x="1000" />

<glyph glyph-name="brand-chrome" unicode="&#xe883;" d="M500 725c-207 0-375-168-375-375 0-207 168-375 375-375 207 0 375 168 375 375 0 207-168 375-375 375z m282-240c20-41 31-87 31-135 0-173-140-312-313-312-4 0-8 0-12 0l155 162 3 3 0 1c77 76 79 198 7 278l-3 3 132 0z m-594-135c0 42 8 82 23 118l103-195 2-3c1-1 1-2 2-3 10-23 24-45 43-63 40-40 91-59 143-59l-91-95c-130 37-225 158-225 300z m308 135c1 0 3 0 4 0l17 0c28-3 56-14 79-34l6-6 6-6c49-55 47-139-6-191-54-55-142-55-197 0-54 54-54 142 0 197 25 24 55 37 87 40l4 0z m4 178c98 0 185-45 242-116l-222 0c-57 5-115-15-159-58-23-23-39-50-49-79l-65 123c57 79 149 130 253 130z" horiz-adv-x="1000" />

<glyph glyph-name="clock" unicode="&#xe884;" d="M813 350c0-173-140-312-313-312-173 0-312 139-312 312 0 173 139 313 312 313 173 0 313-140 313-313z m-313-375c207 0 375 168 375 375 0 207-168 375-375 375-207 0-375-168-375-375 0-207 168-375 375-375z m31 516c0 17-14 31-31 31-17 0-31-14-31-31v-183c0-17 14-31 31-31h141c17 0 31 14 31 31 0 18-14 32-31 32h-110v151z" horiz-adv-x="1000" />

<glyph glyph-name="cloud-lightning" unicode="&#xe885;" d="M146 432c0 126 107 231 241 231 116 0 212-76 236-179 2-8 7-15 14-20 7-4 15-5 24-3 14 3 24 5 33 5 80 0 139-59 139-132 0-30-9-57-26-79-11-13-8-33 5-44 14-10 34-8 44 6 25 33 40 73 40 117 0 110-90 195-202 195-6 0-13-1-19-2-41 118-155 198-288 198-166 0-304-130-304-293 0-88 41-167 105-220 13-12 33-10 44 3 11 14 9 33-4 44-51 43-82 105-82 173z m327-55l-93-157c-6-9-6-21-1-31 6-10 16-16 27-16h112l-66-109c-8-15-4-34 11-43 15-9 34-4 43 11l94 156c6 10 6 22 0 32-5 9-16 15-27 15h-112l66 109c9 15 4 34-11 43-15 9-34 4-43-10z" horiz-adv-x="1000" />

<glyph glyph-name="cloud-drizzle" unicode="&#xe886;" d="M387 663c116 0 212-76 236-179 2-8 7-15 14-20 7-4 15-5 24-3 14 3 24 5 33 5 80 0 139-59 139-132 0-30-9-57-26-79-11-13-8-33 5-44 14-10 34-8 44 6 25 33 40 73 40 117 0 110-90 195-202 195-6 0-13-1-19-2-41 118-155 198-288 198-166 0-304-130-304-293 0-88 41-167 105-220 13-12 33-10 44 3 11 14 9 33-4 44-51 43-82 105-82 173 0 126 107 231 241 231z m123-396c-17 0-31-14-31-32v-41c0-17 14-31 31-31 18 0 32 14 32 31v41c0 18-14 32-32 32z m-135 52c0 17-14 31-31 31-17 0-31-14-31-31v-42c0-17 14-31 31-31 17 0 31 14 31 31v42z m302 31c-17 0-31-14-31-31v-42c0-17 14-31 31-31 17 0 31 14 31 31v42c0 17-14 31-31 31z m-135-281c0 17-14 31-32 31-17 0-31-14-31-31v-42c0-17 14-31 31-31 18 0 32 14 32 31v42z m-198 114c-17 0-31-14-31-31v-42c0-17 14-31 31-31 17 0 31 14 31 31v42c0 17-14 31-31 31z m364-31c0 17-14 31-31 31-17 0-31-14-31-31v-42c0-17 14-31 31-31 17 0 31 14 31 31v42z" horiz-adv-x="1000" />

<glyph glyph-name="cloud-slash" unicode="&#xe888;" d="M178 716c-12 12-32 12-44 0-12-12-12-32 0-44l99-100c-47-47-77-111-77-181 0-143 116-259 259-259h259l127-127c12-12 32-12 44 0 12 12 12 32 0 44l-667 667z m433-522h-196c-108 0-196 88-196 197 0 52 22 101 59 137l333-334z m233 98c0-42-28-79-66-92l47-47c49 27 81 80 81 139 0 92-75 164-170 164-9 0-19-2-28-4-4-1-9-2-13-3l0 0c0 2-1 3-1 4-29 116-137 199-265 199-31 0-61-5-89-14l51-52c12 3 25 4 38 4 102 0 185-67 205-155 4-16 14-30 28-39 14-9 31-11 48-7 15 3 21 4 26 4 63 0 108-46 108-101z" horiz-adv-x="1000" />

<glyph glyph-name="cloud-download" unicode="&#xe889;" d="M305 419c23 3 43 19 50 42 24 69 89 118 166 118 97 0 175-78 175-175 0-34 28-62 62-62 53 0 96-43 96-96 0-53-43-96-96-96h-435c-75 0-135 61-135 135 0 68 50 125 117 134z m-9 62c-96-13-171-95-171-196 0-109 89-197 198-197h435c88 0 159 70 159 158 0 87-71 158-159 158 0 131-106 238-237 238-104 0-193-68-225-161z m256-57c0 17-14 31-31 31-17 0-31-14-31-31v-122l-33 32c-12 12-32 12-44 0-12-12-12-32 0-44l86-86c12-12 32-12 44 0l86 86c12 12 12 32 0 44-12 12-32 12-44 0l-33-32v122z" horiz-adv-x="1000" />

<glyph glyph-name="sidebar" unicode="&#xe8a0;" d="M490 579h260c35 0 63-28 63-62v-334c0-34-28-62-63-62h-260v458z m-63 0v-458h-177c-34 0-62 28-62 62v334c0 34 28 62 62 62h177z m323 63h-500c-69 0-125-56-125-125v-334c0-69 56-125 125-125h500c69 0 125 56 125 125v334c0 69-56 125-125 125z m-531-229c0-18 14-32 31-32h83c18 0 32 14 32 32 0 17-14 31-32 31h-83c-17 0-31-14-31-31z m31-94c-17 0-31-14-31-31 0-18 14-32 31-32h83c18 0 32 14 32 32 0 17-14 31-32 31h-83z" horiz-adv-x="1000" />

<glyph glyph-name="bell-plus" unicode="&#xe8a5;" d="M688 777c0 17-14 31-32 31-17 0-31-14-31-31l0-52-52 0c-17 0-31-14-31-31 0-17 14-31 31-31l52 0v-53c0-17 14-31 31-31 18 0 32 14 32 31v53l52 0c17 0 31 14 31 31 0 17-14 31-31 31l-52 0 0 52z m-195-41c-2 18-18 30-35 28-144-17-255-139-255-287l0-114c-46-22-78-68-78-122 0-75 60-136 135-136h459c75 0 135 61 135 136 0 53-30 99-75 121l0 115c0 17-1 33-4 49-3 17-19 29-36 26-17-3-28-19-26-36 3-13 4-26 4-39l0-137c0-14 9-26 22-30 31-8 53-36 53-69 0-41-33-73-73-73h-459c-40 0-72 32-72 73 0 33 23 62 54 70 14 3 23 16 23 30l0 136c0 116 88 212 200 225 17 2 30 17 28 34z m-132-685c-16-7-22-26-15-42l1-2c4-7 9-19 15-27 28-41 75-67 127-67 66 0 121 40 144 97 7 16-1 35-17 41-16 6-34-1-41-17-13-35-47-59-86-59-31 0-59 16-76 40-2 4-5 10-9 18l-2 4c-7 15-26 22-41 14z" horiz-adv-x="1000" />

<glyph glyph-name="angle-left" unicode="&#xe8ab;" d="M637 591c-12 12-32 12-44 0l-209-208c-12-13-12-32 0-45l209-208c12-12 32-12 44 0 12 12 12 32 0 44l-187 186 187 187c12 12 12 32 0 44z" horiz-adv-x="1000" />

<glyph glyph-name="cloud" unicode="&#xe945;" d="M355 461c24 69 89 118 166 118 97 0 175-78 175-175 0-34 28-62 62-62 53 0 96-43 96-96 0-53-43-96-96-96h-435c-75 0-135 61-135 135 0 68 50 125 117 134 23 3 43 19 50 42z m-230-176c0-109 89-197 198-197h435c88 0 159 70 159 158 0 87-71 158-159 158 0 131-106 238-237 238-104 0-193-68-225-161-96-13-171-95-171-196z" horiz-adv-x="1000" />

<glyph glyph-name="bold" unicode="&#xe94a;" d="M208 694v-667c0-17 14-31 32-31h333c109 0 198 88 198 198 0 83-51 154-124 183 42 37 68 90 68 150 0 109-88 198-198 198h-277c-18 0-32-14-32-31z m63-365h302c75 0 135-60 135-135 0-75-60-136-135-136h-302v271z m246 63h-246v271h246c75 0 136-61 136-136 0-75-61-135-136-135z" horiz-adv-x="1000" />

<glyph glyph-name="users" unicode="&#xe95d;" d="M422 501c0 43 35 78 78 78 43 0 78-35 78-78 0-43-35-78-78-78-43 0-78 35-78 78z m78 141c-78 0-140-63-140-141 0-77 62-140 140-140 78 0 140 63 140 140 0 78-62 141-140 141z m229-172c14 14 37 14 51 0 14-14 14-37 0-51-14-14-37-14-51 0-14 14-14 37 0 51z m-44-95c38-39 101-39 139 0 39 38 39 101 0 139-38 39-101 39-139 0-39-38-39-101 0-139z m-421 95c14-14 14-37 0-51-14-14-37-14-51 0-14 14-14 37 0 51 14 14 37 14 51 0z m-95 44c-39-38-39-101 0-139 38-39 101-39 139 0 39 38 39 101 0 139-38 39-101 39-139 0z m601-187c-17 0-31-14-31-31 0-17 14-31 31-31h12c40 0 72-32 72-72v-17c0-17 14-31 31-31 18 0 32 14 32 31v17c0 74-60 134-135 134h-12z m-552-62h12c18 0 32 14 32 31 0 17-14 31-32 31h-12c-74 0-135-60-135-134v-17c0-17 14-31 32-31 17 0 31 14 31 31v17c0 40 32 72 72 72z m282 80c-57 0-110-10-160-29l0 0c-56-22-93-76-93-137l0-22c0-44 29-84 72-96 49-15 110-21 181-21 71 0 132 6 181 21 43 12 72 52 72 96l0 22c0 61-37 115-93 137-50 19-103 29-160 29z m-137-88c42 17 87 25 137 25 50 0 95-8 137-25 32-12 53-43 54-78l0-22c0-17-11-31-27-36l0 0c-42-12-96-19-164-19-68 0-122 7-164 19-16 5-27 19-27 36l0 22c1 35 22 66 54 78z" horiz-adv-x="1000" />

<glyph glyph-name="comment-activity" unicode="&#xe967;" d="M435 151c-12 18-31 28-52 28h-91c-58 0-104 47-104 104v234c0 57 46 104 104 104h416c58 0 105-47 105-104v-234c0-57-47-104-105-104h-91c-21 0-40-10-52-28l-65-98-65 98z m28-155c18-28 56-28 75 0l79 121h91c92 0 167 74 167 166v234c0 92-75 166-167 166h-416c-92 0-167-74-167-166v-234c0-92 75-166 167-166h91l80-121z m118 531c-4 13-17 22-31 21-14-1-26-11-29-24l-34-153-21 66c-4 12-14 21-27 22-13 1-25-5-30-17l-30-56h-46c-17 0-31-14-31-32 0-17 14-31 31-31h56c17 0 32 9 40 24l33-106c4-14 17-23 31-22 14 0 26 10 29 24l36 158 16-47c6-19 23-31 43-31h50c17 0 31 14 31 31 0 18-14 32-31 32h-38l-48 141z m-29-10l-31 7c0 0 0 0 31-7z" horiz-adv-x="1000" />

<glyph glyph-name="book-open" unicode="&#xe96f;" d="M438 582c1-34 28-61 62-61 34 0 62 27 63 61 0 1 5 8 21 17 24 12 60 22 104 22 43 0 80-10 103-22 16-9 21-16 22-17v-434c-34 18-76 31-125 31-66 0-118-24-157-50v346c0 17-14 31-31 31-17 0-31-14-31-31v-336c-7 5-14 9-22 13-38 19-82 27-134 27-48 0-91-15-125-34v437c0 1 5 8 21 17 24 12 60 22 104 22 43 0 80-10 103-22 17-9 21-16 22-17z m250 101c-58 0-110-14-144-35-27-18-44-40-44-65 0 25-16 47-44 65-34 21-86 35-143 35-104 0-188-44-188-100v-509c0-20 26-30 41-18 35 28 87 61 147 61 91 0 135-30 172-80 8-10 23-11 33-2 30 31 87 82 170 82 51 0 93-20 125-43l0 0c3-2 6-5 9-7 7-5 12-10 18-15 13-12 35-4 35 15v516c0 56-84 100-187 100z" horiz-adv-x="1000" />

<glyph glyph-name="certificate" unicode="&#xe975;" d="M240 725c-87 0-157-70-157-156v-334c0-86 70-156 157-156h52c17 0 31 14 31 31 0 18-14 32-31 32h-52c-52 0-94 42-94 93v334c0 52 42 94 94 94h500c51 0 93-42 93-94v-334c0-51-42-93-93-93h-73c-18 0-32-14-32-32 0-17 14-31 32-31h73c86 0 156 70 156 156v334c0 86-70 156-156 156h-500z m83-460c0-56 28-106 70-136v-156c0-10 5-20 13-26 9-6 19-7 29-3l54 19 55-19c9-4 20-3 28 3 9 6 14 16 14 26v156c42 30 70 79 70 136 0 92-74 166-166 166-92 0-167-74-167-166z m200-247l-23 8c-7 3-14 3-21 0l-23-8v83c11-2 22-3 34-3 11 0 22 1 33 3v-83z m-33 142c-58 0-105 47-105 105 0 57 47 104 105 104 57 0 104-47 104-104 0-58-47-105-104-105z m-84 378c-17 0-31-14-31-32 0-17 14-31 31-31h167c17 0 31 14 31 31 0 18-14 32-31 32h-167z" horiz-adv-x="1000" />

<glyph glyph-name="box" unicode="&#xe976;" d="M152 621h675c4 0 6-3 6-6v-75c0-4-2-7-6-7h-12l0 0-1 0h-649l0 0-1 0h-12c-3 0-6 3-6 7v75c0 3 3 6 6 6z m-69-81c0-32 22-58 50-67v-338c0-86 70-156 157-156h400c86 0 156 70 156 156v338c29 9 50 35 50 67v75c0 38-31 68-69 68h-675c-38 0-69-30-69-68v-75z m113-405v336h587v-336c0-51-42-93-93-93h-400c-52 0-94 42-94 93z m181 248c-17 0-31-14-31-31 0-17 14-31 31-31h225c17 0 31 14 31 31 0 17-14 31-31 31h-225z" horiz-adv-x="1000" />

<glyph glyph-name="browser-code" unicode="&#xe977;" d="M750 704c58 0 104-46 104-104v-500c0-57-46-104-104-104h-500c-57 0-104 47-104 104v500c0 58 47 104 104 104h500z m-500 63c-92 0-167-75-167-167v-500c0-92 75-167 167-167h500c92 0 167 75 167 167v500c0 92-75 167-167 167h-500z m283-378c-17 4-34-7-37-24l-52-233c-4-17 6-34 23-37 17-4 34 6 38 23l52 234c3 16-7 33-24 37z m74-67c-12-12-12-32 0-44l36-36-36-36c-12-13-12-32 0-45 12-12 32-12 44 0l59 59c12 12 12 32 0 44l-59 58c-12 12-32 12-44 0z m-214 0c-12 12-32 12-44 0l-59-58c-12-12-12-32 0-44l59-59c12-12 32-12 44 0 12 13 12 32 0 45l-36 36 36 36c12 12 12 32 0 44z m-299 195c0-18 14-32 31-32h750c17 0 31 14 31 32 0 17-14 31-31 31h-750c-17 0-31-14-31-31z m177 106c0 17-14 31-31 31-18 0-32-14-32-31 0-17 14-31 32-31 17 0 31 14 31 31z m83 0c0 17-14 31-31 31-17 0-31-14-31-31 0-17 14-31 31-31 17 0 31 14 31 31z" horiz-adv-x="1000" />

<glyph glyph-name="comment" unicode="&#xe979;" d="M896 393c5 160-123 290-281 290h-241c-141 0-270-101-288-244-20-153 84-285 225-313v-79c0-46 56-70 89-37l42 43c24 24 48 48 68 68h94c152 0 287 117 292 272z m-281 228c123 0 222-102 218-226-3-118-107-212-229-212h-107c-8 0-16-3-22-9-21-22-49-50-78-78l-24-24v81c0 16-12 30-28 31-121 11-213 120-197 247 13 109 113 190 226 190h241z" horiz-adv-x="1000" />

<glyph glyph-name="file-attach" unicode="&#xe980;" d="M842 406c0-41-33-75-75-75-41 0-75 34-76 76l4 210 0 0c0 13 10 22 22 22 12 0 22-10 22-22l-4-183c0-17 14-31 31-32 17 0 31 14 32 31l4 183 0 1c0 47-38 85-85 85-46 0-84-38-84-84l-4-210 0-1c0-76 62-138 138-138 76-1 138 61 138 137l4 210 0 0c-1 106-87 192-192 192-106 1-192-84-191-190l-4-210c0-17 13-31 31-32 17 0 31 14 31 31l4 210 0 1c0 71 57 128 128 128 72 0 130-58 130-130l-4-209 0-1z m-113-375c0-46-37-83-83-83h-375c-46 0-83 37-83 83v542c0 46 37 83 83 83h229v62h-229c-81 0-146-65-146-145v-542c0-81 65-146 146-146h375c80 0 146 65 146 146v186c-13-1-27-1-42 1-7 2-14 3-21 4v-191z" horiz-adv-x="1000" />

<glyph glyph-name="attach" unicode="&#xe9e6;" d="M559 508c-1 72 56 128 126 128 70 0 127-58 128-129l-4-210 0-1c0-42-33-75-74-75-40 1-74 34-75 76l4 210 0 1c0 12 10 22 21 22 12 0 22-10 22-23l-4-182c0-18 14-32 31-32 17-1 31 13 32 30l4 183 0 1c0 47-38 85-84 85-47 0-84-38-84-84l-4-210 0-1c0-75 61-138 137-138 76 0 136 62 136 137l4 210 0 1c0 105-85 191-190 192-105 0-189-86-189-191l-4-210c0-17 14-31 31-31 17-1 32 13 32 30l4 210 0 1z m-351 16c0 38 34 72 78 72h146c17 0 31 14 31 32 0 17-14 31-31 31h-146c-76 0-140-59-140-135v-414c0-76 64-135 140-135h437c76 0 140 59 140 135 0 17-14 31-31 31-18 0-32-14-32-31 0-39-33-72-77-72h-437c-44 0-78 33-78 72v414z" horiz-adv-x="1000" />

<glyph glyph-name="upload" unicode="&#xe9e8;" d="M327 487l131 131v-369c0-17 14-31 32-31 17 0 31 14 31 31v369l132-131c12-13 32-13 44 0 12 12 12 32 0 44l-184 184c-6 6-14 10-23 10-1 0-2 0-3 0-7-1-14-4-19-9l-186-185c-12-12-12-32 0-44 13-13 32-13 45 0z m465-238v-148c0-23-19-43-43-43h-519c-23 0-42 20-42 43v148c0 18-14 32-32 32-17 0-31-14-31-32v-148c0-58 47-105 105-105h519c58 0 105 47 105 105v148c0 18-14 32-31 32-17 0-31-14-31-32z" horiz-adv-x="1000" />

<glyph glyph-name="thumbtack-star" unicode="&#xe9e9;" d="M315 715c-17 0-31-14-31-32 0-17 14-31 31-31h29l-14-259c-60-29-100-77-119-142-14-48 26-86 68-86h184v-148c0-18 14-32 31-32 18 0 32 14 32 32v148h181c41 0 82 38 68 86-18 60-53 105-105 135-17 10-38 1-45-17-6-14 1-30 14-37 38-22 63-55 76-99 0 0 0-1 0-1 0 0 0-1-1-1-1-2-4-3-7-3l-428 0c-3 0-6 1-7 3-1 0-1 1-1 1 0 0 0 1 0 1 16 53 48 89 101 111l18 7 17 301h54c18 0 32 14 32 31 0 18-14 32-32 32h-146z m430-165c0 76-62 138-138 138-76 0-137-62-137-138 0-76 61-137 137-137 76 0 138 61 138 137z m-145 84c3 6 12 6 15 0l17-38c1-2 4-4 7-4l40-6c6-1 9-10 4-14l-29-31c-2-2-3-4-2-7l6-42c2-7-6-12-12-9l-35 20c-2 1-5 1-8 0l-35-20c-6-3-13 2-12 9l7 42c0 3-1 5-3 7l-29 31c-5 4-2 13 5 14l40 6c2 0 5 2 6 4l18 38z" horiz-adv-x="1000" />

<glyph glyph-name="brand-bunnynet" unicode="&#xe9ea;" d="M587 587c22-11 43-23 66-36l31-17 107-60-194 276v0c-3 4-8 9-15 13-9 5-20 5-29 0-8-4-12-10-13-12 0-1-1-3-2-4 0-1-1-2-1-3v0c-19-34-22-70-10-107 3-13 12-23 23-29 13-7 25-14 37-21z m-6 111l107-131-110 77c-8 6-13 14-14 23-1 9-1 19 2 28 2 6 11 8 15 3z m84-175c-68 36-135 73-202 110-22 11-43 22-64 34l-1 0c-6 4-23 12-39 4-17-9-20-27-21-36-10-67 15-174 87-199 29-10 57-15 86-20l14-3 4 0c26-5 53-9 79-15h1c0-1-1-2-1-4-3-12-11-22-23-27-10-5-22-5-35 2-22 12-44 23-69 29-89 21-177-14-224-90-48-76-39-171 23-246 33-40 65-70 99-101 3-3 7-7 11-10l0 0c12-11 25-23 38-35 6-7 15-10 24-10h4c19 2 34 18 40 27 22 33 19 77-8 108-15 16-30 31-46 44-15 14-31 28-41 46-17 29-13 64 11 87 24 24 61 28 89 11 19-12 31-29 34-49 4-21-2-44-18-63l-1-1c-13-16-27-35-18-55 4-8 12-18 32-18 12 0 21 0 28-1 35-2 45 5 61 37l4 9c15 29 29 55 43 81 4 7 9 16 14 24 12 22 26 46 38 70 27 6 60 29 89 50 3 2 7 5 10 7 8 6 15 11 21 14 29 17 32 38 32 49 1 10-3 30-32 46l-173 94z m41-207c-19-4-33-15-42-34-15-30-29-56-44-84l-2-3 0 0c-10-18-19-35-29-53 3 15 3 31 1 47-7 35-27 66-60 86-49 31-115 23-157-18-42-41-50-105-20-155 15-25 35-43 52-59l3-3c13-11 27-24 38-37 9-10 11-24 6-35-12 11-24 23-36 34-33 29-63 57-93 94-48 58-55 126-20 182 28 44 75 69 127 69 13 0 25-1 38-4 18-5 36-13 57-24l2-1c26-13 56-14 81-2 27 12 46 36 54 64 3 12 6 31-4 47-8 12-20 20-38 25-28 6-57 11-85 15l-15 4c-26 4-52 9-76 18-36 12-53 73-53 119 82-45 165-89 247-134l172-93c-7-4-15-10-24-16-4-3-7-5-11-8-22-15-52-37-69-41z m-239-109c-20 1-38-16-39-36-1-21 16-39 38-39 21 0 37 16 37 37 1 20-15 38-36 38z m-282 264c-33 0-60-27-60-60 0-33 27-60 60-60h60v60h0c0 33-27 60-60 60z m0-82c-12 0-22 10-22 22 0 13 10 22 22 22 13 0 23-10 23-22v-22h-23z" horiz-adv-x="1000" />

<glyph glyph-name="hand-pointer" unicode="&#xe9ec;" d="M428 715c14 0 29-13 29-34l0-171c0 0 0 0 0 0 0 0 0 0 0 0v-150c0-14 11-26 26-26 14 0 25 12 25 26v150c0 0 0 0 0 0 0 21 15 34 29 34 13 0 28-13 28-34v-150c0-14 12-26 26-26 14 0 26 12 26 26v110c0 21 14 34 28 34 14 0 29-13 29-34v-110c0-14 11-26 25-26 15 0 26 12 26 26v80c0 0 0 0 0 0 0 21 15 34 29 34 13 0 28-13 28-34v-290c0-56-25-96-62-123-39-28-91-42-144-42-50 0-90 20-119 41-14 10-25 20-33 28-3 4-6 7-8 9-1 1-1 2-2 2l0 1 0 0 0 0-188 221c-12 15-10 36 4 48 14 12 35 10 47-3l1-2c0 0 0 0 1 0 0-1 1-1 1-2l8-9c39-44 112-16 112 44v318c0 21 15 34 28 34z m80-124v90c0 45-34 86-80 86-46 0-80-41-80-86v-318c0-12-14-18-22-9l-9 10c-1 1-1 2-2 3l-1 0c0 1-1 2-1 2-31 32-81 35-116 6-37-31-40-85-10-122l0 0 187-220 1-1c0-1 1-2 3-3 2-3 6-7 10-12 9-9 23-22 40-34 34-24 85-50 148-50 61 0 124 16 173 51 50 36 84 91 84 166v290c0 46-33 86-79 86-15 0-29-4-41-11-13 24-38 41-68 41-13 0-25-3-36-9-13 29-39 49-72 49-11 0-20-2-29-5z" horiz-adv-x="1000" />

<glyph glyph-name="image-plus" unicode="&#xe9ed;" d="M408 496c0-46 38-83 84-83 46 0 83 37 83 83 0 46-37 83-83 83-46 0-84-37-84-83z m105 0c0-8-9-17-17-17-8 0-17 9-17 17 0 8 9 17 17 17 8 0 17-9 17-17z m350-313h-59v55c0 16-12 29-29 29-17 0-25-13-25-29v-55h-54c-17 0-29-12-29-29 0-16 12-25 29-25h54v-58c0-17 13-25 25-25 13 0 29 12 29 25v58h59c16 0 25 13 25 25 0 17-13 29-25 29z m-192 130c17 0 33 16 33 33 0 8-4 17-12 25-42 42-113 42-154 0l-50-46c-5-4-13-4-17 0l-104 100c-50 50-125 50-175 0l-46-42v125c0 63 50 109 108 109h396c63 0 108-50 108-109v-145c0-17 17-34 34-34 16 0 33 17 33 34v145c8 96-71 175-167 175h-400c-95 0-175-79-175-175v-270c0-100 80-180 175-180h313c17 0 29 17 29 34 0 16-12 29-29 33h-313c-62 0-108 50-108 108v59l92 87c21 21 58 21 79 0l104-104c29-29 79-29 113 0l45 50c17 17 46 17 63 0l4-4c4-4 13-8 21-8z" horiz-adv-x="1000" />

<glyph glyph-name="minimize" unicode="&#xe9ee;" d="M250 79h500c35 0 63 28 63 63v416c0 35-28 63-63 63h-500c-34 0-62-28-62-63v-416c0-35 28-63 62-63z m-125 63v416c0 69 56 125 125 125h500c69 0 125-56 125-125v-416c0-69-56-125-125-125h-500c-69 0-125 56-125 125z m104 21v41c0 23 19 42 42 42h458c23 0 42-19 42-42v-41c0-23-19-42-42-42h-458c-23 0-42 19-42 42z" horiz-adv-x="1000" />

<glyph glyph-name="spinner-alt" unicode="&#xe9ef;" d="M645 643c20-11 46-3 57 17 11 20 4 45-17 56-78 43-168 59-256 46-88-13-169-55-231-119-62-64-101-146-112-235-10-88 9-178 54-254 45-77 115-137 197-170 83-34 174-39 260-15 86 23 162 74 216 145 54 71 83 157 83 246 0 23-19 42-42 42-23 0-41-19-41-42 0-70-24-139-67-195-43-57-103-97-171-116-68-19-141-14-207 12-65 27-120 74-156 135-36 61-51 132-43 202 8 71 39 136 89 187 49 51 114 84 184 95 70 10 141-2 203-37z" horiz-adv-x="1000" />

<glyph glyph-name="picture-in-picture" unicode="&#xe9f0;" d="M708 663c35 0 63-28 63-63v-198c0-17 14-31 31-31 17 0 31 14 31 31v198c0 69-56 125-125 125h-500c-69 0-125-56-125-125v-417c0-69 56-125 125-125h198c18 0 32 14 32 32 0 17-14 31-32 31h-198c-34 0-62 28-62 62v417c0 35 28 63 62 63h500z m-156-334c-40 0-73-32-73-73v-187c0-40 33-73 73-73h271c40 0 73 33 73 73v187c0 41-33 73-73 73h-271z" horiz-adv-x="1000" />

<glyph glyph-name="video-plus" unicode="&#xe9f1;" d="M233 129c-25 0-45 21-45 46v317c0 25 20 46 45 46h371c25 0 46-21 46-46v-321c0-25-21-46-46-46h-371v4z m0-62h371c59 0 109 46 109 108v317c0 58-46 108-109 108h-371c-62 0-108-46-108-108v-321c0-54 46-104 108-104z m567 471l-104-46c-17-9-21-25-17-42 9-17 25-21 42-17l108 50c4 0 4 5 9 5 0 0 0 0 4 0 0 0 0 0 4 0 0 0 0 0 0-5v-295c0 0 0 0-4 0 0 0 0 0-4 0 0 0-5 4-9 4l-108 50c-17 8-33 0-42-17-8-17 0-33 17-42l104-45c46-30 104 0 104 54v291c0 55-58 84-104 55z m-279-171h-71v66c0 21-17 38-37 38-17 0-30-17-30-38v-66h-66c-21 0-34-17-34-34 0-16 17-29 38-29h67v-71c0-16 16-29 29-29 16 0 37 17 37 29v67h71c17 0 29 17 29 29 0 21-16 38-33 38z" horiz-adv-x="1000" />

<glyph glyph-name="cart-slash" unicode="&#xe9f2;" d="M766 612l-41-182h-210l71-62h157c19 0 36 14 40 32l50 224c5 26-15 51-41 51h-497v102c0 17-14 31-31 31h-102c-17 0-32-14-32-31 0-17 15-31 32-31h71v-66l76-67h457v-1z m-533-98v-206c0-41 32-73 73-73h248l114-99c-29-19-48-51-48-88 0-58 47-104 104-104 42 0 78 24 95 60l72-63c13-11 33-10 44 3 12 13 10 33-3 44l-679 591-20 18v0l-140 121c-13 12-32 10-44-3-11-13-10-33 3-44l181-157z m62-206v60h106l81-71h-176c-6 0-11 5-11 11z m34 122h-34v30l34-30z m392-341l45-39c0-1 0-1 0-2 0-23-18-42-42-42-23 0-41 19-41 42 0 22 16 40 38 41z m97 177c0-17-14-31-31-31h-50l-71 62h121c17 0 31-14 31-31z m-469-114c-57 0-104-47-104-104 0-58 47-104 104-104 58 0 104 46 104 104 0 57-46 104-104 104z m0-146c-23 0-41 19-41 42 0 23 18 42 41 42 23 0 42-19 42-42 0-23-18-42-42-42z" horiz-adv-x="1000" />

<glyph glyph-name="brand-intercom" unicode="&#xe9f3;" d="M635 225c15 1 25 13 25 34v326c0 23-9 35-26 34-16 0-25-11-25-32v-329c0-20 10-33 26-33z m-105 19v354c0 22-9 34-26 34-16 0-25-11-25-34v-354c0-23 9-35 25-35 17 0 26 12 26 35z m-155-19c15 1 25 13 25 34v327c0 22-10 34-26 34-16-1-25-12-25-34v-326c0-22 10-35 26-35z m-106 93v218c0 20-10 32-25 32-15 1-25-11-26-32v-218c1-20 10-31 25-31 17-1 26 11 26 31z m480-129c-98-68-207-81-322-65-60 8-117 29-167 65-13 10-26 8-36-5-10-13-6-25 7-36 3-2 5-4 8-6 3-1 5-3 8-5 78-50 165-69 257-70 39-1 78 4 117 12 56 13 110 34 157 69 13 9 17 22 8 36-11 13-24 14-37 5z m-10 347v-218c0-20 11-32 27-31 16 0 24 11 25 31v218c-1 21-11 33-27 32-15 0-25-12-25-32z m48 231h-564c-86 0-140-54-140-139v-556c0-86 54-139 140-139h562c88 0 140 53 140 141v553c0 86-53 140-138 140z m80-694c0-55-26-81-82-81h-562c-54 0-81 26-81 80v555c0 54 26 81 81 81h563c54 0 81-27 81-81v-554z" horiz-adv-x="1000" />

<glyph glyph-name="cloud-check" unicode="&#xe9f4;" d="M494 234l147 147c12 12 12 31 0 43-12 12-31 12-43 0l-125-125-46 45c-12 12-31 12-43 0-12-12-12-31 0-43l67-67c12-12 31-12 43 0z m-171-146h435c88 0 159 70 159 158 0 87-71 158-159 158 0 131-106 238-237 238-104 0-193-68-225-161-96-13-171-95-171-196 0-109 89-197 198-197z m198 491c97 0 175-78 175-175 0-34 28-62 62-62 53 0 96-43 96-96 0-53-43-96-96-96h-435c-75 0-135 61-135 135 0 68 50 125 117 134 23 3 43 19 50 42 24 69 89 118 166 118z" horiz-adv-x="1000" />

<glyph glyph-name="cloud-exclamation" unicode="&#xe9f5;" d="M514 496l-3 0 0 0c-8-1-16-5-21-10-6-5-10-13-10-21l0-1 5-128 0-2 0-1c2-14 14-24 29-24 15 0 28 12 29 27l5 128 0 3 0 0c-1 8-5 16-11 21-6 5-14 8-22 8l-1 0z m-31-249c0-17 14-32 32-32 17 0 32 15 32 32 0 18-15 32-32 32-18 0-32-14-32-32z m-160-159h435c88 0 159 70 159 158 0 87-71 158-159 158 0 131-106 238-237 238-104 0-193-68-225-161-96-13-171-95-171-196 0-109 89-197 198-197z m198 491c97 0 175-78 175-175 0-34 28-62 62-62 53 0 96-43 96-96 0-53-43-96-96-96h-435c-75 0-135 61-135 135 0 68 50 125 117 134 23 3 43 19 50 42 24 69 89 118 166 118z" horiz-adv-x="1000" />

<glyph glyph-name="cloud-times" unicode="&#xe9f6;" d="M427 414c-11-12-11-31 0-42l47-47-47-47c-11-12-11-31 0-42 12-12 31-12 42 0l47 47 48-47c11-12 30-12 42 0 11 11 11 30 0 42l-47 47 47 47c11 11 11 30 0 42-12 12-31 12-42 0l-48-47-47 47c-11 12-30 12-42 0z m-104-326h435c88 0 159 70 159 158 0 87-71 158-159 158 0 131-106 238-237 238-104 0-193-68-225-161-96-13-171-95-171-196 0-109 89-197 198-197z m198 491c97 0 175-78 175-175 0-34 28-62 62-62 53 0 96-43 96-96 0-53-43-96-96-96h-435c-75 0-135 61-135 135 0 68 50 125 117 134 23 3 43 19 50 42 24 69 89 118 166 118z" horiz-adv-x="1000" />

<glyph glyph-name="crown" unicode="&#xe9f7;" d="M530 670c-6 8-15 13-26 13-10 0-20-4-26-13l-145-195-154 145c-10 9-24 11-37 5-12-6-19-20-17-33l62-429c3-16 16-28 32-28h565c16 0 29 12 32 28l61 429c2 13-4 27-17 33-12 6-27 4-37-5l-153-145-140 195z m-166-263l140 189 135-188c6-8 14-13 23-13 10-1 19 2 26 8l112 107-44-310h-509l-45 310 114-107c6-6 15-9 25-9 9 1 17 6 23 13z m-121-326c-17 0-32-14-32-32 0-18 15-32 32-32h516c18 0 33 14 33 32 0 18-15 32-33 32l-516 0z" horiz-adv-x="1000" />

<glyph glyph-name="emoticon-confused" unicode="&#xe9f8;" d="M313 483v-41c0-17 12-34 33-34 21 0 29 17 29 34v41c0 21-12 34-33 34-17 0-29-13-29-34z m320 34c-20 0-33-13-33-34v-41c0-17 13-34 33-34 21 0 34 17 34 34v41c0 21-13 34-34 34z m-283-334l313 71c16 4 29 21 25 38-5 16-21 29-38 25l-312-71c-17-8-30-25-25-42 4-16 20-25 37-21z m142 584c-225 0-409-184-409-409 0-225 184-408 409-408 225 0 408 183 408 408-4 225-187 409-408 409z m-346-409c0 188 154 342 342 342 187 0 341-154 341-342 0-187-154-341-341-341-188 0-342 154-342 341z" horiz-adv-x="1000" />

<glyph glyph-name="folder-download" unicode="&#xe9f9;" d="M750 509c35 0 63-28 63-63v-263c0-34-28-62-63-62h-500c-34 0-62 28-62 62v334c0 34 28 62 62 62h149c3 0 7-1 10-3l82-47c22-13 47-20 73-20h186z m-186 62c-14 0-29 4-42 12l-81 47c-13 8-27 12-42 12h-149c-69 0-125-56-125-125v-334c0-69 56-125 125-125h500c69 0 125 56 125 125v263c0 69-56 125-125 125h-186z m-150-236c-9 9-23 9-32 0-9-9-9-24 0-33l102-102c9-9 23-9 32 0l102 102c9 9 9 24 0 33-8 9-23 9-32 0l-63-64v181c0 13-10 23-23 23-13 0-23-10-23-23v-181l-63 64z" horiz-adv-x="1000" />

<glyph glyph-name="folder-move" unicode="&#xe9fa;" d="M750 509c35 0 63-28 63-63v-263c0-34-28-62-63-62h-500c-34 0-62 28-62 62v334c0 34 28 62 62 62h149c3 0 7-1 10-3l82-47c22-13 47-20 73-20h186z m-186 62c-14 0-29 4-42 12l-81 47c-13 8-27 12-42 12h-149c-69 0-125-56-125-125v-334c0-69 56-125 125-125h500c69 0 125 56 125 125v263c0 69-56 125-125 125h-186z m-64-323c-9-9-9-23 0-32 9-9 23-9 32 0l102 102c9 9 9 23 0 32l-102 103c-9 9-23 9-32 0-9-9-9-24 0-33l63-63h-181c-13 0-23-10-23-23 0-12 10-22 23-22h181l-63-64z" horiz-adv-x="1000" />

<glyph glyph-name="folder-upload" unicode="&#xe9fb;" d="M750 509c35 0 63-28 63-63v-263c0-34-28-62-63-62h-500c-34 0-62 28-62 62v334c0 34 28 62 62 62h149c3 0 7-1 10-3l82-47c22-13 47-20 73-20h186z m-186 62c-14 0-29 4-42 12l-81 47c-13 8-27 12-42 12h-149c-69 0-125-56-125-125v-334c0-69 56-125 125-125h500c69 0 125 56 125 125v263c0 69-56 125-125 125h-186z m22-237c9-9 24-9 32 0 9 9 9 23 0 32l-102 102c-9 9-23 9-32 0l-102-102c-9-9-9-23 0-32 9-9 23-9 32 0l63 63v-181c0-12 11-22 23-22 13 0 23 10 23 22v181l63-63z" horiz-adv-x="1000" />

<glyph glyph-name="grip-h" unicode="&#xe9fc;" d="M83 163c0-58 47-105 105-105 57 0 104 47 104 105 0 57-47 104-104 104-58 0-105-47-105-104z m146 0c0-23-18-42-41-42-23 0-42 19-42 42 0 23 19 41 42 41 23 0 41-18 41-41z m250-105c58 0 104 47 104 105 0 57-46 104-104 104-57 0-104-47-104-104 0-58 47-105 104-105z m0 63c-23 0-41 19-41 42 0 23 18 41 41 41 23 0 42-18 42-41 0-23-19-42-42-42z m292-63c57 0 104 47 104 105 0 57-47 104-104 104-58 0-104-47-104-104 0-58 46-105 104-105z m0 63c-23 0-42 19-42 42 0 23 19 41 42 41 23 0 42-18 42-41 0-23-19-42-42-42z m-688 354c0-57 47-104 105-104 57 0 104 47 104 104 0 58-47 104-104 104-58 0-105-46-105-104z m146 0c0-23-18-42-41-42-23 0-42 19-42 42 0 23 19 42 42 42 23 0 41-19 41-42z m250-104c58 0 104 47 104 104 0 58-46 104-104 104-57 0-104-46-104-104 0-57 47-104 104-104z m0 62c-23 0-41 19-41 42 0 23 18 42 41 42 23 0 42-19 42-42 0-23-19-42-42-42z m292-62c57 0 104 47 104 104 0 58-47 104-104 104-58 0-104-46-104-104 0-57 46-104 104-104z m0 62c-23 0-42 19-42 42 0 23 19 42 42 42 23 0 42-19 42-42 0-23-19-42-42-42z" horiz-adv-x="1000" />

<glyph glyph-name="grip-v" unicode="&#xe9fd;" d="M354 725c-57 0-104-47-104-104 0-58 47-104 104-104 58 0 104 46 104 104 0 57-46 104-104 104z m0-146c-23 0-41 19-41 42 0 23 18 42 41 42 23 0 42-19 42-42 0-23-19-42-42-42z m-104-250c0-57 47-104 104-104 58 0 104 47 104 104 0 58-46 104-104 104-57 0-104-46-104-104z m63 0c0 23 18 42 41 42 23 0 42-19 42-42 0-23-19-41-42-41-23 0-41 18-41 41z m-63-291c0-58 47-105 104-105 58 0 104 47 104 105 0 57-46 104-104 104-57 0-104-47-104-104z m63 0c0 23 18 41 41 41 23 0 42-18 42-41 0-23-19-42-42-42-23 0-41 19-41 42z m354 687c-58 0-104-47-104-104 0-58 46-104 104-104 57 0 104 46 104 104 0 57-47 104-104 104z m0-146c-23 0-42 19-42 42 0 23 19 42 42 42 23 0 41-19 41-42 0-23-18-42-41-42z m-104-250c0-57 46-104 104-104 57 0 104 47 104 104 0 58-47 104-104 104-58 0-104-46-104-104z m62 0c0 23 19 42 42 42 23 0 41-19 41-42 0-23-18-41-41-41-23 0-42 18-42 41z m-62-291c0-58 46-105 104-105 57 0 104 47 104 105 0 57-47 104-104 104-58 0-104-47-104-104z m62 0c0 23 19 41 42 41 23 0 41-18 41-41 0-23-18-42-41-42-23 0-42 19-42 42z" horiz-adv-x="1000" />

<glyph glyph-name="image-move" unicode="&#xe9fe;" d="M671 313c17 0 33 16 33 33 0 8-4 17-12 25-42 42-113 42-154 0l-50-46c-5-4-13-4-17 0l-104 100c-50 50-125 50-175 0l-46-42v125c0 63 50 109 108 109h396c63 0 108-50 108-109v-145c0-17 17-34 34-34 16 0 33 17 33 34v145c8 96-71 175-167 175h-400c-95 0-175-79-175-175v-270c0-100 80-180 175-180h313c17 0 29 17 29 34 0 16-12 29-29 33h-313c-62 0-108 50-108 108v59l92 87c21 21 58 21 79 0l104-104c29-29 79-29 113 0l45 50c17 17 46 17 63 0l4-4c4-4 13-8 21-8z m-263 183c0-46 38-83 84-83 46 0 83 37 83 83 0 46-37 83-83 83-46 0-84-37-84-83z m105 0c0-8-9-17-17-17-8 0-17 9-17 17 0 8 9 17 17 17 8 0 17-9 17-17z m328-229c-10 11-27 11-37 0-9-11-9-28 0-38l36-40h-156c-15 0-26-13-26-27 0-14 11-27 26-27h156l-36-39c-9-10-9-27 1-38 10-11 26-11 36 0l76 84c0 1 0 1 0 1 1 0 1 0 1 0 9 11 9 28 0 38l-77 86z" horiz-adv-x="1000" />

<glyph glyph-name="mobile-slash" unicode="&#xe9ff;" d="M281 664c9 24 31 40 58 40h291c35 0 63-28 63-62v-401l62-64v465c0 69-55 125-125 125h-291c-44 0-82-23-105-57 1-1 3-2 4-3l43-43z m147-545c-17 0-31-14-31-31 0-18 14-32 31-32h113c17 0 31 14 31 32 0 17-14 31-31 31h-113z m-249 565c-12 12-32 13-44 1-13-13-13-32-1-45l80-82v-500c0-69 56-125 125-125h291c53 0 98 32 116 78l37-37c12-13 31-13 44-1 12 12 12 32 0 44l-648 667z m514-618v-8c0-34-28-62-63-62h-291c-35 0-63 28-63 62v436l417-428z" horiz-adv-x="1000" />

<glyph glyph-name="split" unicode="&#xea00;" d="M717 442c12-11 31-11 42 0l149 138c12 11 12 29 0 40l-149 139c-11 10-30 10-42 0-12-11-12-29 0-40l99-92h-275l-203-235h-182c-17 0-31-14-31-32 0-17 14-31 31-31h164l221-256h275l-99-92c-12-11-12-29 0-40 12-10 31-10 42 0l149 139c12 11 12 29 0 40l-149 139c-11 10-30 10-42 0-12-11-12-29 0-40l89-83h-237l-185 214 185 214h237l-89-83c-12-11-12-29 0-39z" horiz-adv-x="1000" />

<glyph glyph-name="star-slash" unicode="&#xea01;" d="M434 501l63 134 63-134c14-31 44-53 78-59l146-22-109-112c-1-1-2-2-3-4 0-1-1-1-2-2l48-40c0 0 0 1 1 1 0 1 1 1 1 2l137 140c24 24 10 65-24 70l-186 29c-13 2-25 11-31 23l-82 174c-15 32-60 32-75 0l-75-159 50-41z m297-411l69-58c13-11 33-9 44 4 11 13 9 33-4 44l-643 542c-14 11-33 9-44-4-11-13-10-33 3-44l100-84-96-15c-33-5-47-46-23-70l137-141c9-9 13-23 11-36l-32-195c-5-35 31-60 61-44l163 90c12 7 27 7 40 0l162-90c30-16 67 9 61 44l-9 57z m-73 61l14-86-125 69c-31 17-69 17-100 0l-125-69 25 154c5 32-5 66-28 89l-109 112 109 17 339-286z" horiz-adv-x="1000" />

<glyph glyph-name="stopwatch" unicode="&#xea02;" d="M482 546c-18 0-32-14-32-31l0-210c0-17 14-31 32-31 17 0 31 14 31 31l0 210c0 17-14 31-31 31z m-148 231c0-17 15-31 32-31h83v-62c-205-16-366-187-366-395 0-220 178-397 397-397 220 0 397 177 397 397 0 119-52 225-135 298l38 57c10 15 6 34-9 44-14 9-34 6-43-9l-36-54c-53 33-115 54-180 59v62h83c17 0 31 14 31 31 0 17-14 31-31 31h-229c-17 0-32-14-32-31z m146-154c185 0 334-150 334-334 0-185-149-335-334-335-184 0-334 150-334 335 0 184 150 334 334 334z" horiz-adv-x="1000" />

<glyph glyph-name="strikethrough" unicode="&#xea03;" d="M416 469c-17 13-29 28-39 46-9 17-13 38-13 62 0 43 13 77 41 101 27 25 63 37 107 37 23 0 46-5 69-15 23-10 42-20 57-31 12-9 23-14 33-17 10-2 18 1 22 9 8 13 7 26-3 39-9 12-23 23-42 34-19 10-41 18-67 24-25 6-50 9-75 9-26 0-51-5-75-14-24-10-44-23-62-39-18-17-32-37-43-60-11-23-16-48-16-77 0-34 5-63 16-85 9-23 23-41 41-57l-172 0c-16 0-28-13-28-29 0-16 12-30 28-30l610 0c16 0 28 14 28 30 0 16-12 29-28 29l-337 0c-20 11-38 22-52 34z m162-149c19-12 36-26 51-42 14-16 26-34 35-53 8-20 13-41 13-65 0-23-5-46-15-66-10-21-23-39-39-56-17-16-35-28-56-37-21-9-43-14-66-14-59 0-111 16-158 47-13 9-24 15-33 18-9 2-17 0-23-8-18-23 2-49 60-78 22-11 46-19 71-25 25-5 52-8 78-8 31 0 60 7 88 19 28 12 53 28 75 49 22 20 39 44 52 72 12 27 19 57 19 90 0 33-5 61-14 85-9 25-21 45-38 63-7 8-16 16-25 24h-99c3-2 6-4 10-6 5-3 10-6 14-9z" horiz-adv-x="1000" />

<glyph glyph-name="trophy-slash" unicode="&#xea04;" d="M192 682c-12 12-32 12-44 0-13-12-13-31-1-44l23-23h-3c-23 0-42-19-42-42v-128c0-57 46-102 102-102h44c26-90 103-157 198-169 0-1 0-2 0-2v-134h-54c-10 0-19-3-27-7-14-7-25-20-30-36-1-5-2-10-2-16 0-2 1-2 2-2h284c1 0 2 0 2 2 0 5-1 11-2 16-5 16-16 29-30 36-8 4-17 7-27 7h-54v134c0 0 0 1 0 2 19 2 38 7 55 14l148-152c12-12 32-12 45 0 12 12 12 31 0 44l-587 602z m345-444c-12-2-24-4-37-4-97 0-176 79-176 176v47l213-219z m-306 315l30-32v-111c0-1 0-3 0-5h-33c-23 0-40 18-40 40v108h43z m445 68v-211c0-38-13-74-34-103l44-46c20 25 34 53 43 84l0-2h44c57 0 102 45 102 102v128c0 23-19 42-42 42h-94l-1-12v39c0 23-18 41-41 41h-394c-8 0-15-3-22-7l54-55h341z m97-216h-35c0 2 0 4 0 5v143h75v-108c0-22-18-40-40-40z" horiz-adv-x="1000" />

<glyph glyph-name="u-turn-down" unicode="&#xea05;" d="M145 261c-13-12-13-32 0-44l222-222c12-13 32-13 44 0l222 222c12 12 12 32 0 44-12 12-32 12-44 0l-169-169v369c0 106 86 191 191 191 106 0 191-85 191-191v-111c0-17 14-31 31-31 18 0 32 14 32 31v111c0 140-114 254-254 254-140 0-253-114-253-254v-369l-169 169c-12 12-32 12-44 0z" horiz-adv-x="1000" />

<glyph glyph-name="u-turn-left" unicode="&#xea06;" d="M401 716c-13 12-32 12-45 0l-222-222c-12-13-12-32 0-45l222-222c13-12 32-12 45 0 12 12 12 32 0 44l-169 169h369c105 0 191-85 191-191 0-105-86-191-191-191h-111c-18 0-32-14-32-31 0-17 14-31 32-31h111c140 0 253 113 253 253 0 140-113 254-253 254h-369l169 169c12 12 12 32 0 44z" horiz-adv-x="1000" />

<glyph glyph-name="u-turn-right" unicode="&#xea07;" d="M589 705c12 13 32 13 44 0l222-222c13-12 13-32 0-44l-222-222c-12-12-32-12-44 0-12 12-12 32 0 44l169 169h-369c-106 0-191-86-191-191 0-106 85-191 191-191h111c17 0 31-14 31-31 0-18-14-32-31-32h-111c-140 0-254 114-254 254 0 140 114 253 254 253h369l-169 169c-12 12-12 32 0 44z" horiz-adv-x="1000" />

<glyph glyph-name="u-turn-up" unicode="&#xea08;" d="M855 439c13 12 13 32 0 44l-222 222c-12 13-32 13-44 0l-222-222c-12-12-12-32 0-44 12-12 32-12 44 0l169 169 0-369c0-106-86-191-191-191-106 0-191 85-191 191l0 111c0 17-14 31-31 31-18 0-32-14-32-31l0-111c0-140 114-254 254-254 140 0 253 114 253 254l0 369 169-169c12-12 32-12 44 0z" horiz-adv-x="1000" />

<glyph glyph-name="user-arrow-down" unicode="&#xea09;" d="M490 363c99 0 180 81 180 181 0 100-81 181-180 181-99 0-180-81-180-181 0-100 81-181 180-181z m0 299c64 0 117-52 117-118 0-66-53-118-117-118-64 0-117 52-117 118 0 66 53 118 117 118z m98-602h-395c-3 0-5 2-5 4v0l0 3 0 1c0 1 0 1 1 2 0 0 0 1 0 1v1c15 86 88 151 174 155h245c17 0 31-2 47-2l0 1c1 0 2 0 3 0 17 0 31 14 31 32 0 17-14 31-31 31-2 0-4 0-5-1-9 0-14 1-20 1h0c-3 0-6 0-9 0-5 0-10 0-16 0h-247c-118-4-215-93-235-207-1-3-1-9-1-17v-1c0-37 30-67 68-67h400c0 0-1 0-1 0 16 3 27 16 27 31 0 18-14 32-31 32z m147-99c2-2 4-3 6-4 3-2 6-2 9-2 2 0 5 1 7 2 3 1 5 2 7 4l104 104c8 9 8 22 0 30-8 8-21 8-30 0l-68-69v242c0 11-10 20-21 20-12 0-21-9-21-20v-242l-69 69c-8 8-21 8-29 0-9-8-8-21 0-30l105-104z" horiz-adv-x="1000" />

<glyph glyph-name="user-arrow-up" unicode="&#xea0a;" d="M490 363c99 0 179 81 179 181 0 100-80 181-179 181-100 0-180-81-180-181 0-100 80-181 180-181z m0 299c64 0 117-52 117-118 0-66-53-119-117-119-65 0-117 53-117 119 0 66 52 118 117 118z m-297-602c-3 0-5 2-5 4v0c0 2 0 3 0 5 0 1 0 1 0 2v1c16 86 88 151 175 155h245c3 0 11 0 14-1l0 0c1 0 2 0 3 0 18 0 32 14 32 32 0 17-14 31-32 31 0 0-1 0-2 0-5 0-10 0-15 0h-247c-118-4-215-93-235-207 0-4-1-9-1-17v-2c0-36 30-66 68-66h464c0 0 0 0 0 0h0c17 0 31 14 31 31 0 18-14 32-31 32-2 0-4-1-5-1h-459v1z m571 223c-2 2-4 3-7 4-5 2-11 2-16 0-1-1-2-1-4-2-1-1-2-1-2-2l-105-105c-8-8-8-21 0-29 9-9 22-9 30 0l69 69v-242c0-11 9-21 21-21 11 0 20 10 20 21v242l69-69c9-9 21-9 30 0 8 8 7 21-1 29l-104 105z" horiz-adv-x="1000" />

<glyph glyph-name="user-crown" unicode="&#xea0b;" d="M448 364c100 0 180 81 180 181 0 100-80 180-180 180-99 0-179-81-179-181 0-100 80-180 179-180z m0 299c65 0 117-53 117-119 0-66-52-118-117-118-64 0-117 53-117 119 0 65 53 118 117 118z m206-624c-5 6-9 13-11 21h-492c-3 0-4 2-4 4v1c0 3 0 5 0 6v1c16 87 88 151 174 155h246c19 0 37-4 55-9 2 18 12 35 29 44v0l1 0c5 2 10 4 16 5-31 13-65 22-101 22h-248c-118-4-214-93-234-207-1-3-2-9-2-16v-2c0-36 31-67 68-67h502c-2 6-4 13-4 20 0 7 2 15 5 22z m256 190c-7 4-15 3-21-3l-44-41-40 56c-3 5-9 8-15 8-5 0-11-3-15-7l-41-57-44 41c-6 6-15 7-22 3-7-4-11-11-10-19l20-140c2-9 10-16 19-16h184c9 0 17 6 18 16l20 140c2 8-1 15-9 19z m-45-138h-152l-10 71 20-19c4-3 10-5 15-5 5 1 10 4 13 8l39 52 38-52c3-5 8-7 13-8 6 0 11 2 15 5l19 19-10-71z m9-56h-169c-10 0-18-8-18-19 0-10 8-19 18-19h169c10 0 19 9 19 19 0 11-9 19-19 19z" horiz-adv-x="1000" />

<glyph glyph-name="user-friends-plus" unicode="&#xea0c;" d="M701 439c66 66 66 172 0 237-65 65-171 65-236 0-66-65-66-171 0-236 65-66 171-66 236-1z m-192 192c41 41 107 41 148 0 41-40 41-107 0-148-41-40-107-40-148 0-41 41-41 108 0 148z m-246-270h-61c-89 0-160-72-160-160 0-18 14-32 31-32 17 0 31 14 31 32 0 53 44 97 98 97h61c17 0 31 14 31 31 0 17-14 32-31 32z m442-286c-1 0-2 0-2 0-4 0-7 0-10-1-33-4-69-7-110-7-81 0-145 8-195 22-21 7-35 26-35 48v26c0 43 26 81 66 97 50 20 104 30 164 30 58 0 113-10 163-30 10-4 19-10 27-17l0 0c5-3 11-5 18-5 17 0 31 14 31 31 0 12-6 22-16 27-11 9-23 17-37 22-58 23-120 35-186 35-67 0-129-12-187-35-63-25-106-86-106-155v-25c0-50 33-95 80-109 58-16 128-24 212-24 44 0 84 3 120 8h1c17 0 31 14 31 31 0 16-13 30-29 31l0 0c0 0 0 0 0 0z m-381 373c47 48 47 125 0 173-48 47-125 47-173 0-47-48-47-125 0-173 48-47 125-47 173 0z m-129 129c24 23 61 23 85 0 23-24 23-61 0-84-24-24-61-24-85 0-23 23-22 60 0 84z m562-489h56v-56c0-15 12-27 27-27 15 0 28 12 28 27v56h56c15 0 27 12 27 27 0 15-12 27-27 27h-56v56c0 15-13 28-28 28-15 0-27-13-27-28v-56h-56c-15 0-27-12-27-27 0-15 12-27 27-27z" horiz-adv-x="1000" />

<glyph glyph-name="file-article" unicode="&#xea0d;" d="M375 579c-23 0-42-18-42-41v-125c0-23 19-42 42-42h250c23 0 42 19 42 42v125c0 23-19 41-42 41h-250z m-42-302c0-17 14-31 32-31h270c18 0 32 14 32 31 0 17-14 31-32 31h-270c-18 0-32-14-32-31z m32-94c-18 0-32-14-32-31 0-17 14-31 32-31h270c18 0 32 14 32 31 0 17-14 31-32 31h-270z m-52 584c-81 0-146-66-146-146v-542c0-80 65-146 146-146h375c80 0 145 66 145 146v453c0 30-11 60-31 83l-98 110c-24 26-58 42-93 42h-298z m458-235v-453c0-46-37-83-83-83h-375c-46 0-84 37-84 83v542c0 46 38 83 84 83h298c17 0 34-7 46-21l98-110c10-11 16-26 16-41z" horiz-adv-x="1000" />

<glyph glyph-name="globe-alt" unicode="&#xea0e;" d="M500-25c207 0 375 168 375 375 0 207-168 375-375 375-207 0-375-168-375-375 0-207 168-375 375-375z m-59 692c-41-56-71-119-88-186h-148c42 95 130 167 236 186z m-100-238c-4-26-6-52-7-78 0-1 0-1 0-1 1-27 3-53 7-78h-154c-6 25-10 51-10 78 0 27 4 53 10 79h154z m54-157c-5 25-8 52-8 78 0 27 3 53 8 79h211c4-26 7-52 7-79 0-26-3-53-7-78h-211z m-42-53c17-67 47-130 88-186-106 20-194 91-236 186h148z m206-186c41 56 71 119 89 186h147c-42-95-130-166-236-186z m34 186c-19-64-50-125-93-178-43 53-74 114-93 178h186z m66 53c4 25 6 51 7 78 0 0 0 0 0 1-1 26-3 52-7 78h154c6-26 10-52 10-79 0-27-4-53-10-78h-154z m-11 209c-18 67-48 130-89 186 106-19 194-91 236-186h-147z m-55 0h-186c19 64 50 125 93 178 43-53 74-114 93-178z" horiz-adv-x="1000" />

<glyph glyph-name="newspaper" unicode="&#xea0f;" d="M409 581c-21 0-37-17-37-39v-115c0-21 16-38 37-38h292c20 0 37 17 37 38v115c0 22-17 39-37 39h-292z m-37-298c0-16 12-29 27-29h311c16 0 28 13 28 29 0 16-12 29-28 29h-311c-15 0-27-13-27-29z m27-87c-15 0-27-13-27-29 0-16 12-28 27-28h311c16 0 28 12 28 28 0 16-12 29-28 29h-311z m-164 423v-102l0 0v-438c0-9 0-17-1-23-2-13-13-23-27-23-15 0-27 13-27 29v557c0 16-12 29-28 29-15 0-27-13-27-29v-557c0-48 37-87 82-87h576c54 0 92 51 92 106v538c0 55-38 106-92 106h-456c-54 0-92-51-92-106z m92 48h456c17 0 37-18 37-48v-538c0-30-20-48-37-48h-497c2 5 2 10 3 15l0 0c0 5 1 9 1 14l0 557c0 30 19 48 37 48z" horiz-adv-x="1000" />

<glyph glyph-name="user-cancel" unicode="&#xea10;" d="M637 518c0 94-75 170-169 170-93 0-169-76-169-171 0-93 76-169 169-169 94 0 169 76 169 170z m-59-1c0-61-49-110-110-110-60 0-110 49-110 111 0 62 50 111 110 111 61 0 110-50 110-112z m-389-455c-3 0-4 2-4 4v0c0 3 0 6 0 7v1c14 81 83 142 164 145h179l0 1c1 0 2 0 2 0 17 0 30 13 30 29 0 16-13 29-30 29-1 0-3 0-5 0h-178c-111-4-202-87-221-195-1-3-1-8-1-15v-2c0-34 29-63 64-63h306l0 0c1 0 1 0 2 0 16 0 29 14 29 30 0 16-13 29-29 29-1 0-2 0-3 0l0 0h-305z m527 184c-85 0-154-69-154-154 0-85 69-154 154-154 85 0 154 69 154 154 0 85-69 154-154 154z m-48-241l135 135c8-14 13-30 13-48 0-55-45-99-100-99-17 0-34 4-48 12z m96 174l-135-135c-7 14-12 31-12 48 0 55 44 99 99 99 18 0 34-4 48-12z" horiz-adv-x="1000" />

<glyph glyph-name="user-info" unicode="&#xea11;" d="M501 353c102 0 185 83 185 186 0 103-83 186-185 186-102 0-185-83-185-186 0-103 83-186 185-186z m0 308c66 0 121-54 121-122 0-68-55-122-121-122-66 0-121 54-121 122 0 68 55 122 121 122z m20-621h-326c-3 0-5 2-5 4v1c0 3 0 5 1 6v1c16 90 90 156 179 160h153l0 0c0 0 1 0 1 0 18 0 33 15 33 33 0 17-15 32-33 32-1 0-3 0-5-1h-151c-122-4-221-95-242-213-1-3-1-9-1-17v-2c0-38 31-69 70-69h325l0 1c2-1 3-1 4-1 18 0 33 15 33 33 0 17-15 32-33 32-1 0-2 0-3 0v0z m116 238c-18 0-32-15-32-32 0-18 14-33 32-33h108c17 0 32 15 32 33 0 17-15 32-32 32h-108z m0-120c-18 0-32-14-32-32 0-18 14-32 32-32h208c18 0 33 14 33 32 0 18-15 32-33 32h-208z m-24-151c0-18 15-32 32-32h209c18 0 32 14 32 32 0 18-14 32-32 32h-209c-17 0-32-14-32-32z" horiz-adv-x="1000" />

<glyph glyph-name="activity-slash" unicode="&#xed90;" d="M174 717c-12 9-29 8-40-3-12-12-12-32 0-44l49-49c-4-13-6-27-6-42v-370c0-80 65-146 146-146h414c1 0 2 0 3 0l61-60c12-12 32-12 44 0 12 12 12 30 2 42-2 1-3 2-4 4l-667 666c-1 1-1 2-2 2z m682-593c17 24 27 53 27 85v370c0 81-65 146-146 146h-414c-20 0-39-4-57-11l51-52c2 0 4 1 6 1h414c46 0 83-38 83-84v-370c0-14-3-28-10-40l46-45z m-263 263l13 57 25-75c7-19 25-32 45-32h59c18 0 32 14 32 31 0 17-14 31-32 31h-48l-58 170c-4 13-17 22-31 21-14-1-26-11-29-24l-28-127 52-52z m-32-144l117-117h-355c-46 0-83 37-83 83v355l162-162-2-3h-57c-17 0-31-14-31-31 0-17 14-31 31-31h66c15 0 30 7 38 19l22-21 31-99c4-14 17-22 31-22 14 1 26 11 29 24l1 5z" horiz-adv-x="1000" />

<glyph glyph-name="address-book" unicode="&#xed91;" d="M323 663h417c34 0 62-28 62-63v-500c0-34-28-62-62-62h-417c-35 0-63 28-63 62v500c0 35 28 63 63 63z m-125-63v-52h-42c-17 0-31-14-31-31 0-18 14-32 31-32h42v-270h-42c-17 0-31-14-31-32 0-17 14-31 31-31h42v-52c0-69 56-125 125-125h417c69 0 125 56 125 125v500c0 69-56 125-125 125h-417c-69 0-125-56-125-125z m333-190c-26 0-48 22-48 49 0 28 22 49 48 49 27 0 49-21 49-49 0-27-22-49-49-49z m99 49c0 55-44 99-99 99-54 0-98-44-98-99 0-55 44-99 98-99 55 0 99 44 99 99z m-295-250c0-2-1-5-1-9l0-1c0-20 17-36 37-36h320l1 0c21 0 37 17 36 37 0 4 0 8 0 10-12 64-66 113-133 113h-128l-5 0c-64-3-116-51-127-114z m128 64l5 0h127c37 0 69-25 81-60h-289c11 34 41 58 76 60z" horiz-adv-x="1000" />

<glyph glyph-name="alarm" unicode="&#xed93;" d="M392 690c-14 21-36 32-59 35-20 2-40-3-57-16-17-12-28-30-33-49-5-22 0-47 14-67l51 37 34 24 50 36z m379-369c0-139-112-250-250-250-138 0-250 111-250 250 0 138 112 250 250 250 138 0 250-112 250-250z m-103-276l57-77c10-13 30-16 44-6 14 10 16 30 6 44l-55 74c69 57 113 144 113 241 0 172-140 312-312 312-173 0-313-140-313-312 0-97 45-184 114-241l-55-74c-11-14-8-34 6-44 14-10 33-7 44 6l57 77c44-24 94-37 147-37 53 0 103 13 147 37z m-116 401c0 17-14 31-31 31-17 0-31-14-31-31v-125c0-18 14-32 31-32h125c17 0 31 14 31 32 0 17-14 31-31 31h-94v94z m157 279c-23-3-45-14-60-35l51-36 34-24 51-37c14 20 18 45 13 67-4 19-15 37-32 49-17 13-38 18-57 16z" horiz-adv-x="1000" />

<glyph glyph-name="album" unicode="&#xed94;" d="M708 663c58 0 105-47 105-105v-416c0-58-47-104-105-104h-416c-58 0-104 46-104 104v416c0 58 46 105 104 105h416z m-416 62c-92 0-167-75-167-167v-416c0-92 75-167 167-167h416c92 0 167 75 167 167v416c0 92-75 167-167 167h-416z m208-562c-104 0-187 83-187 187 0 104 83 188 187 188 104 0 188-84 188-188 0-104-84-187-188-187z m0-63c138 0 250 112 250 250 0 138-112 250-250 250-138 0-250-112-250-250 0-138 112-250 250-250z m0 208c23 0 42 19 42 42 0 23-19 42-42 42-23 0-42-19-42-42 0-23 19-42 42-42z" horiz-adv-x="1000" />

<glyph glyph-name="arrows" unicode="&#xeda5;" d="M443 492l42 42v-170h-171l44 43c12 13 12 32 0 45-12 12-32 12-44 0l-96-97c-6-6-10-14-10-22 0-8 4-16 10-22l96-96c12-13 32-13 44 0 12 12 12 32 0 44l-42 42h169v-169l-42 42c-13 12-32 12-45 0-12-12-12-32 0-44l97-96c6-6 14-10 22-10 8 0 16 4 22 10l97 96c12 12 12 32 0 44-13 12-32 12-45 0l-43-44v171h170l-42-42c-12-12-12-32 0-44 12-13 32-13 44 0l97 96c5 6 9 14 9 22 0 8-4 16-9 22l-97 97c-12 12-32 12-44 0-12-13-12-32 0-45l44-43h-172v172l43-44c13-12 32-12 45 0 12 12 12 32 0 44l-97 97c-6 5-14 9-22 9-8 0-16-4-22-9l-97-97c-12-12-12-32 0-44 13-12 32-12 45 0z" horiz-adv-x="1000" />

<glyph glyph-name="arrows-h" unicode="&#xeda6;" d="M341 507c-12 12-32 12-44 0l-121-121c-6-5-9-13-9-22 0-8 3-16 9-22l121-121c12-12 32-12 44 0 12 13 12 32 0 45l-99 98 99 99c12 12 12 32 0 44z m297-285c13-12 32-13 45 0l120 121c6 5 10 13 10 22 0 8-4 16-10 22l-120 121c-13 12-32 12-45 0-12-13-12-32 0-45l99-98-99-99c-12-12-12-32 0-44z m-471 143c0-18 14-32 31-32h583c18 0 32 14 32 32 0 17-14 31-32 31h-583c-17 0-31-14-31-31z" horiz-adv-x="1000" />

<glyph glyph-name="arrows-v" unicode="&#xeda7;" d="M343 212c-12-12-12-32 0-44l121-121c5-6 13-9 22-9 8 0 16 3 22 9l121 121c12 12 12 32 0 44-13 12-32 12-45 0l-98-99-99 99c-12 12-32 12-44 0z m285 297c13 12 13 32 0 44l-120 121c-6 6-14 9-23 9-8 0-16-3-22-9l-120-121c-13-12-13-32 0-44 12-12 32-12 44 0l98 99 99-99c12-12 32-12 44 0z m-143-471c18 0 32 14 32 31v583c0 17-14 31-32 31-17 0-31-14-31-31v-583c0-17 14-31 31-31z" horiz-adv-x="1000" />

<glyph glyph-name="article" unicode="&#xeda9;" d="M232 666h422c50 0 89-40 89-89v0l-600-1v1c0 49 39 89 89 89z m-89-149l630 0c16 0 30 14 30 30v30c0 82-67 148-149 148h-422c-82 0-149-66-149-148v-440c0-82 67-149 149-149h423c82 0 148 66 148 148l1 31c0 16-14 29-30 29-16 0-30-13-30-29l0-31c0-49-40-88-89-88h-423c-50 0-89 40-89 89v380z m64-136c0-16 13-30 30-30h253c17 0 30 14 30 30 0 16-13 30-30 30h-253c-17 0-30-14-30-30z m0-115c0-16 13-29 30-29h146c17 0 30 13 30 29 0 17-13 30-30 30h-146c-17 0-30-13-30-30z m525 168c-12-11-12-30 0-42l56-56c12-12 30-12 42 0 12 11 12 30 0 42l-56 56c-12 12-31 12-42 0z m92 9l31-32c3-4 3-10 0-14l-216-212 0 0c-2-1-3-2-4-2-2 0-4 0-6 0l-45-10 10 48c0 2 0 4 0 6 0 2 1 4 2 5l214 211c4 4 10 4 14 0z m-55 42l-215-211-1-1c-11-11-17-27-18-42l-18-90c-2-10 1-20 8-27 7-7 17-10 27-8l87 18c16 1 31 8 42 19l215 212c27 26 28 70 1 97l-30 32c-27 28-71 28-98 1z" horiz-adv-x="1000" />

<glyph glyph-name="article-slash" unicode="&#xedaa;" d="M83 609v-463c0-86 70-156 157-156h447c5 0 10 0 15 1l52-53c13-12 32-12 44 0 13 12 13 32 0 44l-390 391h104c18 0 32 14 32 31 0 17-14 31-32 31h-166l-293 293c-12 12-32 12-44 0-12-13-12-32 0-45l74-74z m557-557h-400c-52 0-94 42-94 94v401l112-112h-13c-17 0-31-14-31-31 0-17 14-31 31-31h75l59-59h-134c-17 0-31-14-31-31 0-17 14-31 31-31h155c11 0 21 5 26 14l214-214z m139 558l-519 0 62-63 489 1c17 0 31 14 31 31v31c0 87-70 157-156 157h-446c-39 0-74-14-101-37l45-44c15 11 35 18 56 18h446c52 0 93-42 93-94v0z m162-234c28 28 29 74 1 103l-32 33c-28 30-75 30-104 2l-226-223-1-1 0 0 44-44c1 0 1 1 1 1l157 155 46-46c0 0 1-1 2-2l-158-155 44-45 226 222z m-127-320c18 25 29 56 29 89l0 33c0 17-14 31-31 31-17 0-31-14-32-31l0-32c0-17-4-32-11-45l45-45z m59 342c0 1-1 2-2 2l-45 46 24 23c4 4 11 4 15 0l32-33c4-5 4-11 0-15l-24-23z" horiz-adv-x="1000" />

<glyph glyph-name="asterisk" unicode="&#xedab;" d="M493 683c-17 0-31-14-31-31v-238l-207 119c-15 9-34 4-42-11-9-15-4-34 11-43l253-146c10-6 22-6 32 0 9 5 15 16 15 27v292c0 17-14 31-31 31z m16-296c-10 5-22 5-32 0l-252-146c-15-9-20-28-12-43 9-15 28-20 43-11l206 119v-237c0-17 14-31 31-31 17 0 31 14 31 31v291c0 11-6 21-15 27z m262 133c-9 15-28 20-43 12l-251-145c-9-6-15-16-15-27 0-11 6-22 15-27l250-145c15-8 35-3 43 12 9 15 4 34-11 42l-204 118 204 117c15 9 20 28 12 43z" horiz-adv-x="1000" />

<glyph glyph-name="audio-description" unicode="&#xedad;" d="M208 621h584c34 0 62-28 62-63v-416c0-35-28-63-62-63h-584c-34 0-62 28-62 63v416c0 35 28 63 62 63z m-125-63v-416c0-69 56-125 125-125h584c69 0 125 56 125 125v416c0 69-56 125-125 125h-584c-69 0-125-56-125-125z m428-83v-248c0-18 14-32 31-32h84c86 0 155 70 155 156 0 86-69 155-155 155h-84c-17 0-31-14-31-31z m63-31h52c51 0 93-42 93-93 0-51-42-93-93-93h-52v186z m-217 60c-12 0-24-7-29-19l-87-201c0-1-1-2-1-4l-19-42c-6-16 1-34 17-41 16-7 34 0 41 16l11 26h133l11-26c7-16 25-23 41-16 16 7 23 25 17 41l-106 247c-5 12-17 19-29 19z m40-203h-80l40 93 40-93z" horiz-adv-x="1000" />

<glyph glyph-name="backward" unicode="&#xedaf;" d="M767 187l-195 163 195 163v-326z m63 372c0 32-36 52-63 35l-251-209c-8-5-13-11-16-18v192c0 32-35 52-63 35l-251-209c-26-16-26-54 0-70l251-209c28-17 63 3 63 35v192c3-7 8-13 16-18l251-209c27-17 63 3 63 35v418z m-392-372l-196 163 196 163v-326z" horiz-adv-x="1000" />

<glyph glyph-name="brand-memberpress" unicode="&#xedb0;" d="M715 558c-63 0-118-31-150-79-33 48-88 79-150 79-63 0-118-31-150-79-33 48-88 79-150 79-18 0-32-14-32-31 0-17 14-31 32-31 65 0 118-53 118-119v-225c0-17 14-31 32-31l4 0c15 2 27 15 27 31v225c0 66 53 119 119 119 65 0 118-53 118-119v-225c0-17 14-31 32-31l4 0c15 2 27 15 27 31v225c0 66 53 119 119 119 65 0 118-53 118-119v-225c0-17 14-31 32-31 17 0 31 14 31 31v225c0 100-81 181-181 181z" horiz-adv-x="1000" />

<glyph glyph-name="bars" unicode="&#xedb1;" d="M167 538v-21c0-12 9-21 21-21h625c11 0 20 9 20 21v21c0 11-9 20-20 20h-625c-12 0-21-9-21-20z m21-157c-12 0-21-9-21-21v-20c0-12 9-21 21-21h625c11 0 20 9 20 21v20c0 12-9 21-20 21h-625z m0-177c-12 0-21-9-21-21v-20c0-12 9-21 21-21h625c11 0 20 9 20 21v20c0 12-9 21-20 21h-625z" horiz-adv-x="1000" />

<glyph glyph-name="bars-2" unicode="&#xedb2;" d="M167 454v-21c0-11 9-20 21-20h625c11 0 20 9 20 20v21c0 12-9 21-20 21h-625c-12 0-21-9-21-21z m0-177v-21c0-11 9-21 21-21h625c11 0 20 10 20 21v21c0 12-9 21-20 21h-625c-12 0-21-9-21-21z" horiz-adv-x="1000" />

<glyph glyph-name="battery-full" unicode="&#xedb5;" d="M708 538c35 0 63-28 63-63v-250c0-34-28-62-63-62h-500c-34 0-62 28-62 62v250c0 35 28 63 62 63h500z m-500 62c-69 0-125-56-125-125v-250c0-69 56-125 125-125h500c69 0 125 56 125 125v250c0 69-56 125-125 125h-500z m709-135c-18 0-32-14-32-32v-166c0-18 14-32 32-32 17 0 31 14 31 32v166c0 18-14 32-31 32z m-688 31c-23 0-41-19-41-42v-208c0-23 18-42 41-42h459c23 0 41 19 41 42v208c0 23-18 42-41 42h-459z" horiz-adv-x="1000" />

<glyph glyph-name="battery-half" unicode="&#xedb6;" d="M708 538c35 0 63-28 63-63v-250c0-34-28-62-63-62h-500c-34 0-62 28-62 62v250c0 35 28 63 62 63h500z m-500 62c-69 0-125-56-125-125v-250c0-69 56-125 125-125h500c69 0 125 56 125 125v250c0 69-56 125-125 125h-500z m709-135c-18 0-32-14-32-32v-166c0-18 14-32 32-32 17 0 31 14 31 32v166c0 18-14 32-31 32z m-729-219c0-23 18-42 41-42h209c23 0 41 19 41 42v208c0 23-18 42-41 42h-209c-23 0-41-19-41-42v-208z" horiz-adv-x="1000" />

<glyph glyph-name="battery-quarter" unicode="&#xedb7;" d="M708 538c35 0 63-28 63-63v-250c0-34-28-62-63-62h-500c-34 0-62 28-62 62v250c0 35 28 63 62 63h500z m-500 62c-69 0-125-56-125-125v-250c0-69 56-125 125-125h500c69 0 125 56 125 125v250c0 69-56 125-125 125h-500z m709-135c-18 0-32-14-32-32v-166c0-18 14-32 32-32 17 0 31 14 31 32v166c0 18-14 32-31 32z m-729-11v-208c0-23 18-42 41-42 23 0 42 19 42 42v208c0 23-19 42-42 42-23 0-41-19-41-42z" horiz-adv-x="1000" />

<glyph glyph-name="battery-slash" unicode="&#xedb8;" d="M51 716c-12-12-12-32 0-44l59-60c-35-22-58-61-58-106v-250c0-69 56-125 125-125h414l127-126c12-12 32-12 44 0 12 12 12 32 0 44l-667 667c-12 12-32 12-44 0z m106-150l372-372h-352c-34 0-62 28-62 62v250c0 28 17 51 42 60z m540-369l47-46c35 22 58 61 58 105v250c0 69-56 125-125 125h-414l62-62h352c35 0 63-28 63-63v-250c0-27-18-51-43-59z m220 268c0 17-14 31-32 31-17 0-31-14-31-31v-167c0-17 14-31 31-31 18 0 32 14 32 31v167z" horiz-adv-x="1000" />

<glyph glyph-name="battery-three-quarters" unicode="&#xedb9;" d="M708 538c35 0 63-28 63-63v-250c0-34-28-62-63-62h-500c-34 0-62 28-62 62v250c0 35 28 63 62 63h500z m-500 62c-69 0-125-56-125-125v-250c0-69 56-125 125-125h500c69 0 125 56 125 125v250c0 69-56 125-125 125h-500z m709-135c-18 0-32-14-32-32v-166c0-18 14-32 32-32 17 0 31 14 31 32v166c0 18-14 32-31 32z m-729-219c0-23 18-42 41-42h375c23 0 42 19 42 42v208c0 23-19 42-42 42h-375c-23 0-41-19-41-42v-208z" horiz-adv-x="1000" />

<glyph glyph-name="bolt" unicode="&#xedbf;" d="M561 317c-12 14-29 22-47 22h-243l196 238-15-125c-2-17 3-35 15-49 12-13 29-21 47-21h242l-195-238 15 124c2 18-4 36-15 49z m-389 0c-13-16-1-41 20-41h322l-31-252c-3-25 28-39 44-19l328 399c14 16 2 41-19 41h-322l31 252c3 25-28 38-44 19l-329-399z" horiz-adv-x="1000" />

<glyph glyph-name="books" unicode="&#xedc3;" d="M146 681c0 13 10 23 23 23l79 0c12 0 22-10 23-22l0-1v-43l-125 0v43z m102 86l-79 0c-47 0-86-39-86-86l0-641c0-47 39-86 86-86h79c20 0 39 8 54 20 15-12 34-20 54-20h79c47 0 86 39 86 86v402l105-423c12-48 62-72 107-61l82 21c46 12 79 58 67 105l-154 618c-12 48-62 72-108 61l-82-21c-11-3-21-8-31-15-15 24-42 40-72 40l-79 0c-20 0-39-8-54-20-15 12-34 20-54 20z m210-191v-442l-125 0 0 442 125 0z m-125-536v32h125v-32c0-13-10-23-23-23h-79c-12 0-22 10-23 22l0 1z m-62 0l0-1c-1-12-11-22-23-22l-79 0c-13 0-23 10-23 23v32h125l0-32z m0 94l-125 0 0 442h125v-442z m62 504v43l0 1c1 12 11 22 23 22l79 0c13 0 23-10 23-23v-43h-125z m331-515l-107 430 135 36 107-430-135-36z m16-61l134 36 7-29c3-10-4-25-21-29l-82-21c-17-4-29 5-32 15l-6 28z m-138 551l-9 39c-3 10 4 25 21 29l82 21c16 4 29-5 31-15l10-38-135-36z" horiz-adv-x="1000" />

<glyph glyph-name="brand-android" unicode="&#xedc5;" d="M362 758c-12 12-32 12-44 0-13-13-13-32 0-45l50-50c-62-40-103-110-103-190v0-333c0-23 18-42 41-42h40v-113c0-17 14-31 31-31 17 0 31 14 31 31v113h163v-113c0-17 14-31 31-31 17 0 31 14 31 31v113h40c23 0 42 19 42 42v333 0c0 80-42 150-104 190l51 50c12 13 12 32 0 45-12 12-32 12-44 0l-57-57c-3-3-6-8-7-12-21 6-42 9-64 9-23 0-44-3-64-9-2 4-4 9-8 12l-56 57z m290-285h-325c0 90 73 162 163 162 89 0 162-72 162-162z m0-313h-325v250h325v-250z m171 346c-17 0-31-14-31-31v-229c0-17 14-31 31-31 17 0 31 14 31 31v229c0 17-14 31-31 31z m-635-31c0 17-14 31-32 31-17 0-31-14-31-31v-229c0-17 14-31 31-31 18 0 32 14 32 31v229z" horiz-adv-x="1000" />

<glyph glyph-name="brand-apple" unicode="&#xedc7;" d="M686 670c8 43-19 65-60 50-40-15-80-62-87-104-8-43 18-66 59-50 41 15 80 62 88 104z m-391-250c25 43 67 68 107 68 11 0 25-4 47-13 2-1 5-2 7-3 8-3 18-7 27-11 12-4 29-9 47-9 19 0 37 6 48 10 5 2 14 6 22 9 6 2 11 4 14 5 23 8 42 13 61 12l0 0c12-1 33-3 54-14-28-32-55-82-54-149l0 0c1-94 50-152 89-183-7-15-16-32-28-49l0 0c-16-25-29-43-43-55-11-11-19-13-25-14l-1 0c-11 0-17 2-35 10-20 9-49 21-91 21-43 0-71-11-93-20l-1 0c-19-9-25-11-36-12-2 0-9 1-24 14-14 14-29 34-45 58-29 41-55 100-66 163-11 62-5 119 19 162z m-5-361c33-47 72-100 123-98 23 1 39 7 56 15 19 8 39 17 72 17 30 0 49-9 67-17 18-7 35-15 61-14 53 1 87 48 119 95 18 27 31 53 40 74 9 20-3 44-21 57-30 22-69 65-70 138 0 55 26 95 49 119 17 17 24 46 5 62-42 37-92 42-112 43-40 3-75-11-104-22-18-7-33-13-45-13-13 0-30 7-49 15-24 9-51 21-79 21-66 0-127-41-161-100-69-119-18-295 49-392z" horiz-adv-x="1000" />

<glyph glyph-name="brand-buddyboss" unicode="&#xedc8;" d="M412 767l-7-1c-24-2-38-17-42-38l-21-117-4 0c-10-1-20-3-30-5l-6-1 1 9c1 18-1 37-6 55-15 56-58 93-129 98-28 0-44-16-48-38l-72-387-3-14c-2-15-3-29-3-44-3-182 142-330 322-330l10 0c38 2 74 9 108 22l7 3 9-2c224-73 437 95 440 306 2 182-143 330-323 330l-15-1c-16 0-31-2-46-5l-8-2 0 9c1 18 0 37-5 55-15 56-58 93-129 98z m10-64l3 0c31-6 48-23 55-50 5-16 5-35 3-52-1-1-1-2-1-2l-16-88 52 21 12 4c27 9 56 14 85 14 145 0 262-119 260-266l0-9c-7-148-144-268-300-251l-9 1 10 7c20 18 38 37 54 59 96 9 167 88 167 193 0 109-79 186-184 186-102 0-186-83-187-186 0-35 9-69 27-99l-3 6c-21-19-45-28-74-31l6-10c-23 40-35 86-34 133 0 16 2 32 5 48l27 145-45-9c-87-17-151-93-152-183-2-93 65-171 155-185l9-1c4-1 8 0 11 0l0-1 10 0c64 2 117 27 156 87l0 0 5 9c4 8 9 17 12 26 8 22 16 50 16 65l1 19c0 18-1 37-3 55-2 11-4 22-6 32 19 11 41 18 64 18 2 0 3 0 5 0 1-5 3-11 4-19l2-13 2-14 2-16 2-16 1-16c0-2 0-5 0-8l0-15 0-7c-1-147-122-267-267-267-145 0-262 119-260 266l1 12c0 12 2 24 4 36l70 372 2 0c32-6 49-23 56-50 4-16 4-35 2-52l0-2-17-88 53 21 13 4c25 9 52 14 80 14l26 0 28 153z m264-317c30-21 48-57 48-102 0-53-24-95-62-116 14 36 21 75 22 115 0 34-2 70-8 102l0 1z m-387 0l-8-44c-3-19-5-38-6-58l0-15c1-29 6-57 14-85l2-6c-34 22-57 61-56 105 1 40 20 76 50 99l4 4z m196-65c0-10 0-20 0-29l-1-9c0-2-1-5-1-9l-3-10c-1 6-1 13-1 19 0 12 2 24 5 36l1 2z" horiz-adv-x="1000" />

<glyph glyph-name="brand-buddyboss-app" unicode="&#xedc9;" d="M333-4c-34 0-62 28-62 62v584c0 34 28 62 62 62h292c35 0 63-28 63-62v-584c0-34-28-62-63-62h-292z m292-63c69 0 125 56 125 125v584c0 69-56 125-125 125h-292c-69 0-125-56-125-125v-584c0-69 56-125 125-125h292z m-204 489l-7-40c-2-7-3-14-3-21 0-24 6-45 17-63-33 1-59 29-58 63 0 30 22 56 51 61z m67 51l2 10c0 0 14 57-41 61-4 0-6-2-6-5l-11-58c-15 0-29-3-42-8l2 10c0 0 13 57-42 61-4 0-5-2-6-5l-29-157c-2-7-2-14-2-21-1-67 52-121 118-121 66 0 120 54 121 121 0 17-5 30-12 37-11 9-29 7-38-4-8-10-7-24-7-31 0-1 0-2 0-2-1-15-6-28-14-39-8 11-13 24-13 39 1 34 29 63 64 63 34 0 62-29 61-63 0-23-12-43-30-54l0 0c-2-1-5-3-7-6-2-2-3-4-4-6l0 0c-11-20-26-36-44-48-1-1-3-2-2-4 0-1 3-2 5-2 6-1 12-1 18-1 66 0 121 54 121 121 1 66-52 120-118 120-15 0-30-3-44-8z m-50-354c-18 0-32-14-32-31 0-18 14-32 32-32h83c17 0 31 14 31 32 0 17-14 31-31 31h-83z" horiz-adv-x="1000" />

<glyph glyph-name="brand-buddyboss-bolt" unicode="&#xedca;" d="M744 308c30 0 58 8 83 22l0 0c53 29 89 85 90 150-1 93-79 169-174 169-67 0-126-38-155-93l0 0c-11-23-17-48-17-75 0-48 20-91 51-123l0 0c32-31 75-50 122-50z m-234 244l-7-1 1 7c1 15-1 31-5 46-12 45-48 76-107 79l-5 0c-20-2-32-14-35-31l-19-96-3-1c-8 0-16-2-25-3l-4-1 0 7c1 15-1 31-5 46-12 45-48 76-107 79-23 0-37-12-40-31l-61-317-2-12c-1-12-2-24-3-36-2-149 119-270 269-270l9 0c31 1 61 7 89 18l7 2 6-2c178-57 347 65 365 227-17-7-35-12-55-14-22-107-127-187-245-174l-7 1 7 6c17 14 33 30 46 48 67 6 120 53 134 120-17 2-34 7-50 13-6-31-24-56-49-70 10 27 16 55 18 85-20 11-38 25-53 42l0-7c0-2 0-4 1-6l0-13 0-6c-2-121-102-219-223-219-121 0-218 98-217 219l1 9c0 10 2 20 4 30l58 305 1 0c27-5 41-19 47-41 4-13 4-28 2-42l-1-3-13-72 44 18 10 3c22 8 44 11 67 12l22 0 24 125 1 0c27-5 41-19 47-41 4-13 4-28 2-42 0-1 0-2-1-3l-13-72 44 18 9 3c6 2 13 4 19 6 2 18 5 37 11 54-3-1-7-1-10-2z m-106-265c-1-26 6-50 17-73l2-3-5-5c-14-11-30-17-48-19l-8-1-1 1c-15 31-23 64-23 100 1 13 2 26 5 39l22 119-37-8c-73-13-126-76-127-150-1-76 55-140 129-152l8-1c3 0 6 0 9 1l0-1 8 0c54 2 98 22 130 72l4 6c4 7 8 14 10 22 7 18 14 41 14 53l0 16c0 14 0 30-2 45-1 9-3 18-5 26 7 4 15 8 23 10-7 16-12 32-16 49-62-19-108-77-109-146z m-106 84l-7-36c-3-16-4-32-5-48l0-12c1-24 5-47 12-69l2-6c-29 18-48 50-47 87 0 32 16 62 41 81l4 3z m445 187c1-1 2-2 2-4l-7-50c0-2 1-4 2-6 2-2 4-3 7-3h73c2 0 4-1 5-3 1-2 0-4-1-5l-69-83c-1-1-3-1-5 0-1 1-1 2-1 3l6 50c1 2 0 5-2 7-1 1-4 2-6 2h-77c-2 0-3 2-3 4 0 1 0 2 1 2l71 85c1 2 3 2 4 1z" horiz-adv-x="1000" />

<glyph glyph-name="brand-buddypress" unicode="&#xedcb;" d="M500 767c-230 0-417-187-417-417 0-230 187-417 417-417 230 0 417 187 417 417 0 230-187 417-417 417z m0-63c196 0 354-158 354-354 0-196-158-354-354-354-196 0-354 158-354 354 0 196 158 354 354 354z m-96-361h-29c-69 0-125-56-125-125v-14c0-23 19-41 42-41h297c23 0 42 18 42 41v14c0 69-56 125-125 125h-29l-34-32c-1-1-4-1-5 0l-34 32z m98-62l4-1 6 0c28-2 50-23 55-50l1-5h-255l1 5c5 29 31 50 61 50l4 1 15-15c26-25 67-25 93 0l15 15z m129 161l-22 0-4 0c-15-2-27-15-27-31 0-17 14-31 31-31h21l3 0 5-1c16-2 30-14 36-30l1-1-33 0-4 0c-15-2-27-15-27-31 0-17 14-31 31-31h45l5 0c27 3 48 25 48 52l-1 5c0 2 0 4 0 6-9 52-52 91-104 93l-4 0z m-191 91c-47 0-86-38-86-86 0-48 39-87 86-87 48 0 87 39 87 87 0 48-39 86-87 86z m0-62c14 0 25-11 25-24 0-13-11-24-25-24-13 0-24 11-24 24 0 13 11 24 24 24z m151 128c-39 0-71-31-71-71 0-39 32-71 71-71 39 0 70 32 70 71 0 40-31 71-70 71z m0-62c4 0 8-4 8-9 0-5-4-8-8-8-5 0-9 3-9 8 0 5 4 9 9 9z" horiz-adv-x="1000" />

<glyph glyph-name="brand-clubhouse" unicode="&#xedcd;" d="M411 705l-5-6-2-3c-32 22-75 19-103-11-21-22-26-53-18-81-11-4-22-11-31-21-26-28-28-71-7-104l3-5 43-58c-10-4-19-10-27-19-26-28-27-71-7-103l4-6 132-178-1 1c112-177 261-191 429-41 62 60 90 142 95 241 1 23 1 46 0 71l-5 68 0 5c0 42-26 68-61 79-10 3-19 4-25 4-11 0-21-6-27-15l-2-4-48-112-214 290c-30 40-88 45-123 8z m72-43l2-3 246-332c13-18 39-16 50 2l2 4 59 137 1-1 3-2c2-2 3-5 3-9l1-3 0 0 1-12 3-53 1-28 0-26 0-17c0-2 0-3 0-5-4-84-27-151-75-198l-9-7c-135-117-238-105-327 36l-1 1-1 1-132 179c-7 9-7 22-1 28l3 3c7 5 17 4 24-3l3-2 68-92c10-14 29-17 43-6 12 9 15 26 8 40l-2 3-159 214c-7 10-7 22-1 29 8 8 20 8 28 0l2-3 138-187c11-14 30-16 43-6 13 10 16 27 9 40l-3 4-138 187-2 3-1 1-26 35c-7 9-7 22-1 28 7 8 20 8 28 0l2-2 32-44 0 0 104-140 17-24c11-14 30-16 43-6 13 9 16 27 9 40l-3 4-121 164 0-1c-7 10-7 22-1 29 8 8 20 8 28 0z m-375-400l4 0c-13 2-26-8-27-22-13-107 63-199 168-204 14-1 26 9 26 23 1 14-9 26-23 26-77 5-132 71-123 149 2 14-7 27-21 28l-4 0z m83-4l4 0c-14 1-26-8-28-22-7-61 36-113 96-117 14 0 25 10 26 24 1 14-10 26-23 26-32 2-54 29-50 61 2 14-8 26-21 28l-4 0z m455 509c-14 0-25-11-25-25 0-14 10-25 24-25 77-2 134-66 128-145-1-14 9-26 22-27 14-1 25 9 27 23 9 107-70 197-176 199z m-7-84c-14 0-25-11-25-25 0-14 10-25 24-25 32-1 55-27 52-59-1-14 9-26 22-27 14-1 26 9 27 23 5 61-40 111-100 113z" horiz-adv-x="1000" />

<glyph glyph-name="brand-codepen" unicode="&#xedce;" d="M251 461l228 202v-125l-157-139-71 62z m291 77v125l228-202-71-62-157 139z m-268-181l-45-40v80l45-40z m-100 120c-6-6-8-14-6-21-1-2-1-5-1-7v-188c0-2 0-3 0-5-1-7 1-14 7-19l323-285c8-7 19-7 27 0l323 285c5 5 8 12 7 19 0 2 0 3 0 5v188c0 2 0 5-1 7 2 7 0 15-6 21l-323 285c-8 6-19 6-27 0l-323-285z m618-80v-80l-45 40 45 40z m-93-82l71-62-228-202v125l157 139z m-220-139v-125l-228 202 71 62 157-139z m173 181l-142-125-141 125 141 125 142-125z" horiz-adv-x="1000" />

<glyph glyph-name="brand-dribbble" unicode="&#xedcf;" d="M279 571l0 0c31 31 66 54 104 69 37-56 69-114 99-173-92-35-190-52-287-50 12 57 40 110 84 154z m-91-216c109-3 218 15 321 56 12-26 23-52 34-78-110-33-209-94-288-177-46 58-68 129-67 199z m40-263c2-3 4-5 6-7 1-1 2-2 3-2 147-145 383-144 528 2 64 64 100 145 108 228 1 1 1 3 1 4 1 4 1 7 0 10 7 104-30 209-109 288-102 102-248 133-377 93-1 0-2-1-3-1-55-18-107-48-150-92-144-144-147-376-7-523z m218 566c86 15 178-6 250-64-49-41-101-75-157-102-28 57-59 112-93 166z m294-108c47-56 71-123 72-192-71 8-141 5-208-9-12 29-24 58-38 87 62 30 120 68 174 114z m68-254c-11-61-40-120-87-167l44-44-44 44c-12-12-24-22-37-31-16 64-35 129-58 192 59 11 120 13 182 6z m-180-231c-107-48-236-33-329 46 73 77 165 134 266 164 25-69 46-139 63-210z" horiz-adv-x="1000" />

<glyph glyph-name="brand-edge" unicode="&#xedd0;" d="M505 725c-168 0-311-105-363-267-7-22-12-45-15-68l1 3 1-4-2 1-1-12c-11-145 71-288 194-356 46-26 110-46 185-47l1 0 12 0c108 3 209 50 293 158l2 3c7 10 7 24-1 33-8 10-22 13-33 8l-10-4-28-11c-19-6-47-10-76-10-28 0-55 3-75 10-39 11-64 22-95 45-30 24-55 55-73 95-14 30-13 68 7 99 14 22 43 37 71 37 18 0 35-6 51-16 21-15 31-31 35-52 3-14 2-29-1-43-1-5-3-9-4-13-3-5-4-8-7-11l-4-6c-9-12-7-28 3-37 2-2 5-4 8-6l4-3 6-3c28-15 71-25 111-25 48 0 89 13 125 49 32 32 47 74 48 119 1 30-5 58-14 82-39 114-129 216-283 245-24 5-48 7-73 7z m-354-329l-1-9 1 9z m202-46l6 9-6-9z m7-38l2-7c2-9 5-18 9-26 25-57 63-99 110-129 32-21 58-32 93-42 26-8 58-12 91-12l14 0c4 0 9 1 14 1l1 0-2-1c-43-33-88-53-135-61-83-5-163 49-195 131-20 47-21 97-3 144l1 2z m10 208c10 0 20-1 31-2l11-2c20-4 40-10 58-19l9-5-6-1c-22-4-42-13-59-26l-7-5-13-11c-98-84-126-201-84-304l4-11c11-24 25-46 43-66l3-4-6 3-7 3c-105 59-177 185-164 310 41 94 106 140 187 140z m245-246l-6 3 6-3z m-110 395c21 0 42-2 62-6 133-25 207-111 242-208 6-18 10-41 10-63 0-32-10-59-32-81-25-25-48-32-85-32l-7 0c-19 1-40 6-57 11l-7 2 3 6c2 4 4 9 5 15 6 22 7 45 2 69-1 8-4 17-8 25-28 83-122 152-225 166l-10 1c-51 6-102-5-146-30l-6-4 2 3c60 79 153 126 257 126z" horiz-adv-x="1000" />

<glyph glyph-name="brand-elementor" unicode="&#xedd1;" d="M229 621h23v-542h-23v542z m542 0v-23l-320 0v23h320z m0-259v-24h-320v24l320 0z m0-260v-23h-320v23l320 0z m-498 581h-65c-23 0-41-18-41-41v-584c0-23 18-41 41-41h65c23 0 42 18 42 41v584c0 23-19 41-42 41z m560-106v65c0 23-18 41-41 41h-361c-23 0-42-18-42-41v-65c0-23 19-42 42-42l361 0c23 0 41 19 41 42z m0-195c0 23-18 42-41 42l-361 0c-23 0-42-19-42-42v-64c0-23 19-42 42-42h361c23 0 41 19 41 42v64z m0-324v65c0 23-18 42-41 42l-361 0c-23 0-42-19-42-42v-65c0-23 19-41 42-41h361c23 0 41 18 41 41z" horiz-adv-x="1000" />

<glyph glyph-name="brand-facebook" unicode="&#xedd2;" d="M452 41c-150 24-264 153-264 309 0 173 139 313 312 313 173 0 313-140 313-313 0-158-117-288-269-309v203h76l12 90h-88v56c0 26 7 44 44 44h46v79c-22 3-45 4-68 4-68 0-115-42-115-118v-65h-76v-89h77v-204z m-327 309c0-207 168-375 375-375 207 0 375 168 375 375 0 207-168 375-375 375-207 0-375-168-375-375z" horiz-adv-x="1000" />

<glyph glyph-name="brand-firefox" unicode="&#xedd3;" d="M295 587c55 47 127 76 205 76 109 0 204-55 260-137 11-188-100-343-239-341-25 1-51 6-78 18-17 7-34 17-51 29-5 4-2 6 5 7l0 0c7 0 19 0 32 0h0c7 0 15 0 23 0 22 1 44 2 55 8 1 1 2 1 3 2 5 3 11 6 17 10l0 0 1 0c5 4 10 7 15 10l0 0c8 4 15 7 19 6 19-3 24 12 14 23-2 3-5 6-9 9l0 0c-8 7-20 14-33 16-8 1-17 1-26-2-2-1-4-2-5-3-93-43-155 21-144 59 2 7 9 16 13 17 4 4 16 12 30 23l0 0c17 13 38 28 56 43 1 1 2 2 3 3 2 2 5 4 7 6 3 3 6 6 8 8 7 7 11 13 13 18 3 6 6 21-3 24-11 3-36 4-52 4l0 0c-4 0-7 0-10 0-21 0-36 11-39 23l0 0 0 0c0 0 0 1 0 1l0 0c0 2-1 4 0 6 1 18 14 41 52 72-65 9-102-41-102-41-2 0-5 1-7 1-11 2-22 2-33 2z m-66-78c2 2 4 5 5 8l1 0 22 4 0 0 0 0 0 0 1 0 1 0c1 0 3 0 5 1 5 0 11 1 19 2 16 1 30 1 37-1l8-2c6-16 17-29 28-38 5-4 10-7 16-10l-7-6-7-5-1 0c-6-5-15-12-22-17-3-3-6-5-8-7-5-4-9-8-11-12-6-7-13-18-17-32-14-48 11-92 43-118-7-8-13-19-14-33-2-15 2-28 6-37 7-14 19-22 22-25l0 0c67-48 138-66 207-55 68 11 126 49 169 101 37 45 64 101 79 164 1-12 2-24 2-36 0 0 0-1 0-1-1-148-118-306-313-306-125 0-202 65-241 112-11 13-19 24-24 32-2 3-4 6-5 8-1 1-1 2-1 2l0 0 0 1-1 1c-43 78-45 150-36 202 1 8 3 15 4 22 7 24 15 48 27 69l6 11 0 1z m-91-58c-9-31-13-63-13-96 0-2 0-3 0-5 1-52 13-113 48-176 0 0 12-24 38-54 46-56 139-135 289-135 235 0 375 192 375 370 0 75-22 140-54 192-18 29-39 55-61 75-68 64-159 103-260 103-109 0-208-46-277-121-16 23-20 50-20 50 0 0-30-22-39-73-3-17-3-37 0-60 0 0-15-27-26-70z" horiz-adv-x="1000" />

<glyph glyph-name="brand-flickr" unicode="&#xedd4;" d="M500 725c-21 0-42-2-62-5-178-30-313-184-313-370 0-207 168-375 375-375h0c207 0 375 168 375 375v0c0 207-168 375-375 375z m313-375v0c0-173-140-312-313-312h0c-173 0-312 139-312 312 0 173 139 313 312 313 173 0 313-140 313-313z m-435 96c-52 0-95-43-95-95 1-53 43-95 96-95 52 0 95 42 95 95 0 52-43 95-95 95h-1z m153-95c0-53 42-95 95-95 52 0 95 42 95 95 0 52-43 95-95 95h0c-53 0-95-43-95-95z" horiz-adv-x="1000" />

<glyph glyph-name="brand-gamipress" unicode="&#xedd5;" d="M497 573l73-150c-27-20-44-52-44-88 0-62 50-111 111-111 61 0 111 49 111 111 0 2 0 4-1 6l70 47c8 6 19-3 16-12l-99-288c-2-5-6-8-10-8h-469c-5 0-9 3-10 8l-98 286c-4 10 7 18 15 12l66-45c0-2 0-4 0-6 0-62 49-111 111-111 61 0 110 49 110 111 0 36-17 68-44 88l73 150c4 8 15 8 19 0z m-75 28l-103-209 35-12c19-6 33-24 33-45 0-27-22-49-48-49-27 0-49 22-49 49 0 4 1 8 2 12l6 21-100 69c-58 40-133-17-110-83l98-287c10-29 38-49 69-49h469c31 0 59 20 69 49l99 289c23 66-52 123-110 84l-104-71 5-22c2-4 2-8 2-12 0-27-21-49-48-49-27 0-48 22-48 49 0 21 13 39 32 45l34 12-102 209c-26 54-104 54-131 0z" horiz-adv-x="1000" />

<glyph glyph-name="brand-github" unicode="&#xedd6;" d="M490 704c85 0 181-36 251-112 53-59 92-141 92-246 0-79-27-154-67-210-35-48-82-80-121-101-1 7-2 17-4 28-3 17-8 37-16 57 80 27 136 108 136 201 0 37-13 72-34 101l-2 72c0 0 0 0 0 0-1 42-42 72-82 57 0 0 0 0 0 0l-77-29c-25 6-50 9-76 9-27 0-52-3-76-9l-78 29c0 0 0 0 0 0-40 15-81-15-82-57 0 0 0 0 0 0l-2-72c-21-29-34-64-34-101 0-93 56-174 137-201-9-20-14-40-17-57-2-11-3-21-4-28-38 21-85 53-120 101-41 56-68 131-68 210 0 105 39 187 92 246 70 76 166 112 252 112z m93-688l0-31c0-10 6-20 14-26 9-5 20-6 30-2 44 18 130 61 189 142 48 66 80 154 80 247 0 122-46 219-109 288-82 90-196 133-297 133-102 0-216-43-298-133-62-69-109-166-109-288 0-93 32-181 80-247 60-81 146-124 190-142 9-4 20-3 29 2 9 6 14 16 14 26l0 31 0 0 0 0c0 1 0 1 0 2 0 2 0 4 0 7 1 7 2 16 4 27 4 22 12 49 27 74 6 9 7 21 2 31-5 10-15 16-26 17-66 5-122 66-122 147 0 25 9 49 26 71 5 5 7 12 7 19l2 81 85-32c6-2 12-2 19-1 22 6 45 9 70 9 24 0 48-3 70-9 6-1 12-1 18 1l85 32 2-81c0-7 3-14 7-19 17-22 27-46 27-71 0-81-57-142-123-147-11-1-21-7-26-17-5-10-4-22 2-31 16-25 24-52 28-74 2-11 3-20 3-27 0-3 0-5 0-7 0-1 0-1 0-2z m82 476c0 0 0 0 0 0z" horiz-adv-x="1000" />

<glyph glyph-name="brand-google" unicode="&#xedd7;" d="M125 360c0-201 163-364 365-364 201 0 364 163 364 364 0 18-14 32-31 32h-271c-17 0-31-14-31-32 0-17 14-31 31-31h238c-16-152-144-271-300-271-167 0-302 136-302 302 0 167 135 303 302 303 73 0 141-27 193-71 13-11 33-9 44 4 11 14 9 33-4 44-63 53-145 85-233 85-202 0-365-163-365-365z" horiz-adv-x="1000" />

<glyph glyph-name="brand-gitlab" unicode="&#xedd8;" d="M69 247l402-287 4-2c9-5 20-5 29 0 1 0 3 1 4 2l402 287c23 16 33 46 24 73 0 0 0 1 0 1l-137 372c-15 43-78 43-92-1l-90-256h-250l-90 256c-15 44-77 44-92 1l-138-372c0 0 0-1 0-1-9-27 1-57 24-73z m35 53l124 336 199-568-322 230c-1 0-1 1-1 2z m283 73h206l-103-293-103 293z m364 263l124-336c0-1 0-2-1-2l-322-230 199 568z" horiz-adv-x="1000" />

<glyph glyph-name="brand-google-admob" unicode="&#xedd9;" d="M146 361c0 189 154 343 344 343 21 0 39-17 39-39 0-21-18-39-39-39-147 0-266-119-266-265 0-147 119-266 266-266 21 0 39-17 39-39 0-21-18-39-39-39-190 0-344 154-344 344z m344 203c112 0 203-91 203-203v-305 0 0l0-1 0-8 0-1c5-52 49-92 101-92 56 0 102 46 102 102v0 0l0 305 0 12 0 0c-7 219-186 394-406 394-225 0-407-182-407-406 0-224 182-406 407-406 56 0 101 45 101 101 0 56-45 102-101 102-113 0-203 91-203 203 0 112 90 203 203 203z m98 126c139-41 240-168 245-318l0-11v-211c-12 5-25 8-39 8-14 0-27-3-39-8v211c0 116-75 215-179 251 10 15 15 34 15 53 0 9-1 17-3 25z m206-673c-20 0-36 15-38 35l-1 5c1 21 18 38 39 38 20 0 37-15 39-34l0-6c0-21-17-38-39-38z" horiz-adv-x="1000" />

<glyph glyph-name="brand-google-firebase" unicode="&#xedda;" d="M205 148l519 417 90-393-323-174c-6-3-14-3-20 1l-266 149z m652-24c17 9 26 28 21 46l-93 409c-10 45-64 64-100 35l-543-436c-23-19-20-54 5-69l293-165c25-14 55-14 81-1l336 181z m-370 488l59-105c8-15 27-21 42-12 15 8 21 27 12 42l-67 121c-19 35-69 36-90 2l-310-502c-9-15-4-34 10-43 15-9 34-4 43 10l301 487z m-259 70l110-176c9-15 29-19 43-10 15 9 19 28 10 43l-127 203c-27 43-92 27-96-24l-43-564c-1-17 12-33 29-34 17-1 32 12 33 29l41 533z" horiz-adv-x="1000" />

<glyph glyph-name="brand-google-fonts" unicode="&#xeddb;" d="M872 548c0 75-61 135-135 135-4 0-8 0-12 0h-248c-10 0-19-5-25-12l0 0-1-1c-1-1-1-3-2-4l-360-585c-6-10-6-22-1-32 6-10 16-16 28-16h250c11 0 21 7 27 16l52 95v-73c0-17 14-31 32-31h250c3 0 7 1 10 2 100 4 180 86 180 187 0 94-69 171-158 185 64 11 113 67 113 134z m-364 72h114c-13-21-21-45-21-72 0-65 46-120 107-133-93-10-166-89-166-186 0-49 18-93 49-126h-83v154l2 3-2 1v359z m-336-524l273 445v-268l-98-177h-175z m120 482c0 58-47 104-104 104-58 0-105-46-105-104 0-57 47-104 105-104 57 0 104 47 104 104z" horiz-adv-x="1000" />

<glyph glyph-name="brand-instagram" unicode="&#xeddc;" d="M292 38c-58 0-104 46-104 104v416c0 58 46 105 104 105h416c58 0 105-47 105-105v-416c0-58-47-104-105-104h-416z m416-63c92 0 167 75 167 167v416c0 92-75 167-167 167h-416c-92 0-167-75-167-167v-416c0-92 75-167 167-167h416z m0 625c-23 0-41-19-41-42 0-23 18-41 41-41 23 0 42 18 42 41 0 23-19 42-42 42z m-292-166c46 46 122 46 168 0 46-46 46-122 0-168-46-46-122-46-168 0-46 46-46 122 0 168z m212 44c-71 71-185 71-256 0-71-71-71-185 0-256 71-71 185-71 256 0 71 71 71 185 0 256z" horiz-adv-x="1000" />

<glyph glyph-name="brand-learndash" unicode="&#xeddd;" d="M771 642v-559c0-31-17-59-42-74v633c0 11 10 21 21 21 12 0 21-10 21-21z m-104 0v-692c0-9 7-17 16-17 83 0 150 68 150 150v559c0 46-37 83-83 83-46 0-83-37-83-83z m-146-559c0-31-17-59-42-74v424c0 12 10 21 21 21 12 0 21-9 21-21v-350z m-21 434c-46 0-83-38-83-84v-483c0-9 7-17 16-17 83 0 150 68 150 150v350c0 46-37 84-83 84z m-229-434c0-31-17-59-42-74v174c0 12 10 21 21 21 12 0 21-9 21-21v-100z m-21 184c-46 0-83-38-83-84v-233c0-9 7-17 16-17 83 0 150 68 150 150v100c0 46-37 84-83 84z" horiz-adv-x="1000" />

<glyph glyph-name="brand-lifterlms" unicode="&#xedde;" d="M496 338c11 28 0 60-26 76l-25 14 8 0c28 1 52 20 59 47 10 38 26 73 49 106 35 50 84 88 143 111 1 0 3 1 4 1 0-1 1-3 1-4 7-63-3-124-30-180-17-34-41-64-71-92-20-19-25-49-12-74l3-6-24 14c-26 15-59 10-79-13z m-55-66c5-9 13-14 23-13 31 2 61 14 79 38l110-65 5-3 15-9 0 0 13-8c8-5 19-4 27 3 8 7 10 18 5 28l-7 12 0 0-8 16-3 6-49 95c34 31 63 67 84 110 33 66 45 141 36 216-3 17-6 35-11 52-3 11-15 19-28 16-17-4-34-10-51-16-69-27-129-72-172-134-27-39-46-81-57-125l-108-3-6 0-15 0-2 0-15 0c-10 0-19-7-21-18-3-10 1-19 10-25l11-6 1-1 15-9 5-3 111-66c-13-28-9-59 3-88z m-98-252l9 7 5 4 20 15 5 3 117 90 4 3 29 22 12 9c7 7 3 19-7 20-3 1-7 2-11 3-2 0-4 1-6 2-9 2-19 6-28 10-2 0-3 1-4 1-29 12-59 29-82 47-2 1-3 2-4 3-9 7-17 13-23 20-2 2-3 3-4 5-2 2-4 5-6 7-6 8-20 6-23-4l-1-13-4-37-1-7-17-147-1-6-3-25-1-6-1-11c-4-15 15-26 26-15z m49 116l6 50c5-3 10-6 15-9 6-4 12-7 19-11l-40-30z m253 421c-1-10-9-17-18-17-10 0-17 9-17 18 0 10 8 17 18 17 10 0 17-9 17-18z m41-2c1 33-24 60-57 62-32 1-60-25-61-57-1-33 25-60 57-62 33-1 60 25 61 57z m-198 134c-1 17-16 30-33 29-128-8-249-78-318-198-91-157-62-350 57-474 8-8 20-11 31-8 12 3 20 12 22 23l55 258c4 16-7 33-24 37-17 3-34-8-37-24l-41-193c-66 102-74 237-9 350 58 101 160 160 268 167 17 1 30 16 29 33z m367-202c-8 16-26 22-42 14-15-7-22-26-14-41 48-97 48-215-11-316-65-113-186-174-307-167l146 132c13 11 14 31 2 44-11 13-31 14-44 2l-195-176c-9-8-13-20-10-31 3-11 12-20 23-23 168-41 349 31 440 188 69 119 68 259 12 374z" horiz-adv-x="1000" />

<glyph glyph-name="brand-linkedin" unicode="&#xeddf;" d="M188 142v416c0 58 46 105 104 105h416c58 0 105-47 105-105v-416c0-58-47-104-105-104h-416c-58 0-104 46-104 104z m520-167c92 0 167 75 167 167v416c0 92-75 167-167 167h-416c-92 0-167-75-167-167v-416c0-92 75-167 167-167h416z m-375 227h46c4 0 8 3 8 8v232c0 5-4 9-8 9h-46c-5 0-8-4-8-9v-232c0-5 3-8 8-8z m192 132c0 30 25 55 55 55 31 0 55-25 55-55v-124c0-5 4-8 9-8h46c4 0 8 3 8 8v124c0 79-33 132-118 117-26-6-43-16-55-30v21c0 5-4 9-8 9h-46c-5 0-8-4-8-9v-232c0-5 3-8 8-8h46c4 0 8 3 8 8v123l0 1z m-204 170c0-18 15-33 33-33 19 0 34 15 34 33 0 19-15 34-34 34-18 0-33-15-33-34z" horiz-adv-x="1000" />

<glyph glyph-name="brand-medium" unicode="&#xede0;" d="M274 239c-71 0-128 57-128 128 0 71 57 129 128 129 71 0 129-58 129-129 0-71-58-128-129-128z m0-63c106 0 191 86 191 191 0 106-85 191-191 191-105 0-191-85-191-191 0-105 86-191 191-191z m382 104c-14-19-27-24-34-24-8 0-21 5-35 24-14 20-24 51-24 87 0 37 10 68 24 87 14 20 27 25 35 25 7 0 20-5 34-25 14-19 25-50 25-87 0-36-11-67-25-87z m-34-86c67 0 121 78 121 173 0 96-54 174-121 174-68 0-122-78-122-174 0-95 54-173 122-173z m232 173c0-23-3-44-7-61-4 17-7 38-7 61 0 24 3 45 7 61 4-16 7-37 7-61z m63 0c0 87-31 157-70 157-38 0-69-70-69-157 0-86 31-156 69-156 39 0 70 70 70 156z" horiz-adv-x="1000" />

</font>
</defs>
</svg>
